<?xml version="1.0" standalone="no"?>
<!DOCTYPE svg PUBLIC "-//W3C//DTD SVG 1.1//EN" "http://www.w3.org/Graphics/SVG/1.1/DTD/svg11.dtd" >
<svg xmlns="http://www.w3.org/2000/svg" xmlns:xlink="http://www.w3.org/1999/xlink" version="1.1">
<metadata></metadata>
<defs>
<font id="rubiklight" horiz-adv-x="1097" >
<font-face units-per-em="2048" ascent="1638" descent="-410" />
<missing-glyph horiz-adv-x="528" />
<glyph unicode="&#xfb01;" horiz-adv-x="1013" d="M39 991v29q0 20 12 32.5t33 12.5h182v117q0 156 67.5 245t241.5 89h228q20 0 32.5 -12.5t12.5 -33.5v-28q0 -20 -12.5 -32.5t-32.5 -12.5h-228q-104 0 -144 -54.5t-40 -171.5v-106h412q20 0 32.5 -12.5t12.5 -32.5v-975q0 -20 -12.5 -32.5t-32.5 -12.5h-35 q-20 0 -32.5 12.5t-12.5 32.5v901h-332v-901q0 -20 -12 -32.5t-33 -12.5h-35q-20 0 -32.5 12.5t-12.5 32.5v901h-182q-20 0 -32.5 12.5t-12.5 32.5z" />
<glyph unicode="&#xfb02;" horiz-adv-x="1136" d="M39 991v29q0 20 12 32.5t33 12.5h182v117q0 156 67.5 245t241.5 89h107q20 0 32.5 -12.5t12.5 -33.5v-28q0 -20 -12.5 -32.5t-32.5 -12.5h-107q-104 0 -144 -54.5t-40 -171.5v-106h453v405q0 20 12 33t33 13h35q20 0 32.5 -12.5t12.5 -33.5v-1425q0 -20 -12.5 -32.5 t-32.5 -12.5h-35q-20 0 -32.5 12.5t-12.5 32.5v901h-453v-901q0 -20 -12 -32.5t-33 -12.5h-35q-20 0 -32.5 12.5t-12.5 32.5v901h-182q-20 0 -32.5 12.5t-12.5 32.5z" />
<glyph horiz-adv-x="0" />
<glyph unicode="&#xd;" horiz-adv-x="528" />
<glyph horiz-adv-x="0" />
<glyph horiz-adv-x="0" />
<glyph unicode=" "  horiz-adv-x="528" />
<glyph unicode="&#x09;" horiz-adv-x="528" />
<glyph unicode="&#xa0;" horiz-adv-x="528" />
<glyph unicode="!" horiz-adv-x="460" d="M145 45v78q0 20 12.5 33.5t32.5 13.5h78q20 0 33.5 -13.5t13.5 -33.5v-78q0 -20 -13 -32.5t-34 -12.5h-78q-20 0 -32.5 12.5t-12.5 32.5zM168 338v1051q0 20 12.5 32.5t32.5 12.5h35q20 0 32.5 -12.5t12.5 -32.5v-1051q0 -20 -12.5 -32.5t-32.5 -12.5h-35q-20 0 -32.5 12 t-12.5 33z" />
<glyph unicode="&#x22;" horiz-adv-x="696" d="M127 1413v4q0 16 11.5 26.5t27.5 10.5h92q18 0 29.5 -11t9.5 -30l-31 -334q-4 -39 -35 -39h-38q-31 0 -35 39zM399 1413v4q0 16 11.5 26.5t27.5 10.5h92q18 0 29.5 -11t9.5 -30l-30 -334q-4 -39 -35 -39h-39q-31 0 -35 39z" />
<glyph unicode="#" horiz-adv-x="1435" d="M106 436v29q0 20 12.5 32.5t33.5 12.5h243l60 401h-250q-20 0 -32.5 12.5t-12.5 32.5v29q0 20 12 32.5t33 12.5h268l41 268q4 18 15.5 30.5t29.5 12.5h37q18 0 30.5 -12t10.5 -31l-41 -268h342l41 268q4 18 15.5 30.5t29.5 12.5h37q18 0 30.5 -12t10.5 -31l-41 -268h223 q20 0 32.5 -12t12.5 -33v-29q0 -20 -12 -32.5t-33 -12.5h-240l-59 -401h246q20 0 32.5 -12.5t12.5 -32.5v-29q0 -20 -12.5 -32.5t-32.5 -12.5h-264l-39 -268q-4 -18 -16.5 -30.5t-30.5 -12.5h-37q-18 0 -30.5 12t-10.5 31l41 268h-342l-39 -268q-4 -18 -16.5 -30.5 t-30.5 -12.5h-37q-19 0 -31 12t-10 31l41 268h-227q-20 0 -33 12.5t-13 32.5zM520 510h340l60 401h-340z" />
<glyph unicode="$" horiz-adv-x="1220" d="M90 348q0 16 12.5 28.5t30.5 12.5h41q37 0 45 -41q14 -98 112.5 -172t282.5 -74q195 0 290 71t95 198q0 78 -46 128t-134 88t-266 95q-158 51 -247 100t-132 121t-43 182q0 150 109.5 251.5t306.5 115.5v141q0 20 12 32.5t33 12.5h39q20 0 32.5 -12t12.5 -33v-143 q129 -12 221 -67.5t139 -132t51 -154.5q0 -16 -11 -28.5t-32 -12.5h-40q-14 0 -28.5 9t-17.5 32q-12 102 -109 168.5t-245 66.5q-158 0 -251 -61.5t-93 -184.5q0 -80 42 -132t126 -90t248 -91q168 -53 262 -102t142 -119t48 -180q0 -172 -119.5 -273.5t-332.5 -115.5v-142 q0 -20 -12.5 -32.5t-32.5 -12.5h-39q-21 0 -33 12.5t-12 32.5v144q-139 10 -241.5 63t-157 132t-58.5 169z" />
<glyph unicode="%" horiz-adv-x="1517" d="M109 1071q0 57 2 94q6 129 77.5 204t208.5 75t209 -75t78 -204q4 -74 4 -94q0 -18 -4 -88q-6 -125 -81 -195.5t-206 -70.5t-205.5 70.5t-80.5 195.5q-2 35 -2 88zM180 41q0 12 8 22l1010 1332q16 23 29.5 31t38.5 8h34q18 0 29.5 -11.5t11.5 -29.5q0 -12 -8 -23 l-1009 -1331q-16 -20 -29.5 -29.5t-38.5 -9.5h-35q-18 0 -29.5 11.5t-11.5 29.5zM227 1075q0 -47 2 -86q6 -70 45 -119t123 -49t123 49.5t45 118.5q4 78 4 86q0 14 -4 84q-4 72 -44 121t-124 49t-124 -49t-44 -121q-2 -35 -2 -84zM831 352q0 57 3 94q6 129 77.5 204 t208.5 75t209 -75t78 -204q4 -74 4 -94q0 -18 -4 -88q-6 -127 -81 -201.5t-206 -74.5t-205.5 74.5t-80.5 201.5q-2 35 -3 88zM950 356q0 -47 2 -86q6 -70 45 -119t123 -49t123 49.5t45 118.5q4 78 4 86q0 14 -4 84q-4 72 -44 121t-124 49t-124 -49t-44 -121q-2 -35 -2 -84z " />
<glyph unicode="&#x26;" horiz-adv-x="1380" d="M125 377q0 131 78 220t217 171q-106 113 -148.5 190.5t-42.5 167.5q0 88 46.5 164t128 120t182.5 44q102 0 183 -43t127 -117.5t46 -167.5q0 -90 -43 -158.5t-109.5 -117.5t-168.5 -107l391 -383q90 152 112 345q2 20 13.5 32.5t31.5 12.5h39q20 0 32.5 -12.5t12.5 -32.5 q-8 -229 -147 -437l201 -196q18 -18 18 -33q0 -39 -41 -39h-45q-37 0 -57 20l-152 152q-182 -193 -455 -192q-131 0 -233 51t-159.5 142t-57.5 204zM254 377q0 -127 94 -201t227 -74q97 0 190 41t171 121l-430 416q-123 -70 -187.5 -138.5t-64.5 -164.5zM358 1126 q0 -63 36 -124.5t138 -167.5q142 77 211.5 139.5t69.5 152.5q0 92 -64.5 148.5t-162.5 56.5q-94 0 -161 -56t-67 -149z" />
<glyph unicode="'" horiz-adv-x="423" d="M127 1413v4q0 16 11.5 26.5t27.5 10.5h92q18 0 29.5 -11t9.5 -30l-31 -334q-4 -39 -35 -39h-38q-31 0 -35 39z" />
<glyph unicode="(" horiz-adv-x="653" d="M131 633q0 350 36 554t128 303t262 99q18 0 31.5 -13t13.5 -32v-28q0 -18 -12 -32t-27 -14q-119 0 -185.5 -74.5t-96 -254.5t-29.5 -508t29.5 -508t96 -256t185.5 -76q14 0 26.5 -13t12.5 -32v-29q0 -18 -13.5 -31.5t-31.5 -13.5q-170 0 -262 100.5t-128 304.5t-36 554z " />
<glyph unicode=")" horiz-adv-x="653" d="M51 -252q0 18 12.5 31.5t26.5 13.5q119 0 185.5 76t96 256t29.5 508t-29.5 508t-96 254.5t-185.5 74.5q-14 0 -26.5 13.5t-12.5 32.5v28q0 18 13.5 31.5t31.5 13.5q170 0 262.5 -99t128 -303t35.5 -554t-35.5 -554t-128 -304.5t-262.5 -100.5q-18 0 -31.5 13.5 t-13.5 31.5v29z" />
<glyph unicode="*" horiz-adv-x="913" d="M125 1227l27 78q4 16 21 24t34 4l16 -8l189 -102l-39 211l-2 16q0 16 13 30.5t32 14.5h82q18 0 31.5 -14.5t13.5 -30.5l-2 -16l-41 -213l190 104l17 8q4 2 10 2q16 0 29.5 -8t15.5 -22l26 -78l3 -13q0 -14 -9.5 -27t-21.5 -18l-17 -4l-215 -28l158 -146q12 -12 12 -14 q8 -12 9 -25q0 -25 -19 -37l-65 -49q-12 -6 -27 -6q-27 0 -37 17q0 2 -2 4t-6 10l-94 196l-95 -196q-4 -8 -6 -10t-2 -4q-10 -16 -37 -17q-14 0 -26 6l-66 49q-18 12 -18 37q0 12 8 25q0 2 12 14l156 148l-213 26l-16 4q-16 4 -24.5 21.5t-4.5 36.5z" />
<glyph unicode="+" horiz-adv-x="1286" d="M92 606v29q0 20 12.5 32.5t32.5 12.5h445v436q0 20 12 32.5t33 12.5h30q20 0 32.5 -12t12.5 -33v-436h447q20 0 32.5 -12.5t12.5 -32.5v-29q0 -20 -12.5 -32.5t-32.5 -12.5h-447v-448q0 -20 -12 -32.5t-33 -12.5h-30q-21 0 -33 12t-12 33v448h-445q-20 0 -32.5 12.5 t-12.5 32.5z" />
<glyph unicode="," horiz-adv-x="485" d="M121 -111l39 246q6 55 51 55h92q14 0 22.5 -10t8.5 -22q0 -18 -8 -37l-88 -232q-10 -23 -21.5 -33t-32.5 -10h-34q-17 0 -25 12.5t-4 30.5z" />
<glyph unicode="-" horiz-adv-x="997" d="M152 600v29q0 20 12 32.5t33 12.5h604q20 0 32.5 -12.5t12.5 -32.5v-29q0 -20 -12.5 -32.5t-32.5 -12.5h-604q-21 0 -33 12.5t-12 32.5z" />
<glyph unicode="." horiz-adv-x="487" d="M150 45v98q0 20 12 33.5t33 13.5h98q20 0 33.5 -13t13.5 -34v-98q0 -20 -13.5 -32.5t-33.5 -12.5h-98q-21 0 -33 12.5t-12 32.5z" />
<glyph unicode="/" horiz-adv-x="940" d="M55 -131q0 8 6 25l705 1685q4 10 15.5 20.5t29.5 10.5h35q16 0 28.5 -12.5t12.5 -28.5q0 -8 -6 -25l-705 -1685q-4 -10 -15 -20.5t-30 -10.5h-35q-16 0 -28.5 12.5t-12.5 28.5z" />
<glyph unicode="0" horiz-adv-x="1261" d="M137 715l2 174q6 254 120 409.5t372 155.5t371.5 -155.5t119.5 -409.5q2 -57 2 -174q0 -115 -2 -170q-6 -254 -119.5 -409.5t-371.5 -155.5t-372 155.5t-120 409.5zM266 719l2 -164q4 -217 95.5 -335t267.5 -118t267 118t95 335q2 59 2 164q0 104 -2 160 q-4 213 -95 332.5t-267 119.5t-267.5 -119.5t-95.5 -332.5z" />
<glyph unicode="1" horiz-adv-x="815" d="M57 1049q0 20 19 34l436 336q20 14 53 15h39q20 0 32.5 -12.5t12.5 -32.5v-1344q0 -20 -12 -32.5t-33 -12.5h-39q-20 0 -32.5 12.5t-12.5 32.5v1221l-366 -283q-16 -10 -29 -10q-20 0 -35 18l-22 29q-10 14 -11 29z" />
<glyph unicode="2" horiz-adv-x="1146" d="M106 45v31q0 41 52 86l530 530q113 104 152 176t39 170q0 137 -79 215t-225 78q-137 0 -219 -80t-98 -215q-2 -23 -17.5 -35t-29.5 -12h-41q-20 0 -31.5 11.5t-11.5 27.5q4 100 53 198.5t149.5 163t245.5 64.5q219 0 326 -118.5t107 -297.5q0 -123 -53.5 -221 t-170.5 -207l-479 -487h686q23 0 35 -12.5t12 -34.5v-31q0 -20 -13 -32.5t-34 -12.5h-839q-21 0 -33.5 12.5t-12.5 32.5z" />
<glyph unicode="3" horiz-adv-x="1179" d="M96 330q0 18 12.5 28.5t30.5 10.5h29q20 0 34.5 -9.5t20.5 -37.5q29 -121 130.5 -170.5t232.5 -49.5q164 0 262 78t98 226q0 283 -340 282h-180q-20 0 -32.5 12.5t-12.5 32.5v31q0 23 18 49l422 498h-618q-20 0 -32.5 12t-12.5 33v30q0 20 12 34t33 14h764q23 0 35 -12.5 t12 -35.5v-30q0 -18 -17 -39l-432 -506h41q217 0 343 -102.5t126 -302.5q0 -131 -63.5 -228.5t-174 -147.5t-251.5 -50q-148 0 -257.5 49t-169 129t-63.5 172z" />
<glyph unicode="4" horiz-adv-x="1218" d="M66 414v32q0 31 22 62l623 891q10 16 30.5 25.5t44.5 9.5h84q20 0 32.5 -12.5t12.5 -32.5v-897h187q20 0 32.5 -12.5t12.5 -33.5v-32q0 -20 -12.5 -32.5t-32.5 -12.5h-187v-324q0 -20 -12 -32.5t-33 -12.5h-39q-20 0 -32.5 12.5t-12.5 32.5v324h-675q-20 0 -32.5 12 t-12.5 33zM227 492h559v796z" />
<glyph unicode="5" horiz-adv-x="1171" d="M102 358v4q0 16 11.5 25.5t29.5 9.5h39q20 0 32.5 -9t18.5 -38q31 -125 125.5 -186.5t214.5 -61.5q158 0 261.5 94.5t103.5 262.5q0 102 -48 178t-132 117t-185 41q-82 0 -132 -21.5t-101 -58.5q-31 -23 -50.5 -33t-41.5 -10h-37q-18 0 -32.5 13t-12.5 32l61 669 q2 23 13.5 35.5t31.5 12.5h668q20 0 32.5 -12.5t12.5 -32.5v-33q0 -20 -12 -32.5t-33 -12.5h-588l-43 -463q109 70 264 70q139 0 251 -53.5t177.5 -157t65.5 -248.5q0 -154 -65.5 -262.5t-177 -162.5t-251.5 -54q-143 0 -248.5 54t-162 140t-60.5 184z" />
<glyph unicode="6" horiz-adv-x="1191" d="M113 463q0 178 129 362l403 568q2 4 11.5 15t22.5 18.5t30 7.5h39q18 0 29 -13.5t11 -31.5q0 -10 -10 -27l-307 -434q61 16 139 16q158 0 270.5 -66.5t170 -177t57.5 -237.5t-57.5 -237.5t-170 -178t-270.5 -67.5q-157 0 -270 67.5t-170 178t-57 237.5zM242 463 q0 -113 51 -195t135 -124t182 -42q99 0 183 42t135 124t51 195t-51 193.5t-135 122.5t-183 42q-98 0 -182 -42t-135 -123t-51 -193z" />
<glyph unicode="7" horiz-adv-x="997" d="M59 1356v30q0 20 12.5 34t32.5 14h791q23 0 35 -12.5t12 -35.5v-30q0 -39 -14 -76l-518 -1229q-10 -25 -21.5 -38t-32.5 -13h-43q-18 0 -29.5 13.5t-11.5 31.5l4 18l527 1248h-699q-20 0 -32.5 12t-12.5 33z" />
<glyph unicode="8" horiz-adv-x="1265" d="M123 403q0 127 61.5 219.5t169.5 143.5q-86 47 -133 126t-47 185q0 178 130 277.5t329 99.5t329 -99.5t130 -277.5q0 -106 -48.5 -185t-132.5 -126q109 -51 170.5 -143.5t61.5 -219.5q0 -133 -67.5 -229t-183.5 -145t-259 -49q-144 0 -259.5 49t-183 145t-67.5 229z M252 403q0 -137 109.5 -219t271.5 -82t271.5 82t109.5 219q0 135 -108.5 217t-272.5 82t-272.5 -81.5t-108.5 -217.5zM303 1077q0 -117 94.5 -184.5t235.5 -67.5q139 4 234.5 72t95.5 180q0 117 -94.5 185.5t-235.5 68.5t-235.5 -68.5t-94.5 -185.5z" />
<glyph unicode="9" horiz-adv-x="1171" d="M86 981q0 119 55.5 227.5t165 177t264.5 68.5q156 0 266.5 -68.5t166 -177t55.5 -227.5q0 -106 -35 -188t-86 -156l-422 -596q-2 -4 -11 -15.5t-22.5 -18.5t-29.5 -7h-41q-19 0 -30 13.5t-11 31.5q0 12 10 27l324 454q-61 -16 -134 -16q-156 0 -265 67.5t-164.5 176 t-55.5 227.5zM215 981q0 -104 48 -183t130 -122t178 -43q97 0 178.5 43t131 123t49.5 182q0 104 -49.5 184t-131 123t-178.5 43q-96 0 -178 -43t-130 -123t-48 -184z" />
<glyph unicode=":" horiz-adv-x="493" d="M152 45v98q0 20 12 33.5t33 13.5h98q20 0 33.5 -13t13.5 -34v-98q0 -20 -13.5 -32.5t-33.5 -12.5h-98q-21 0 -33 12.5t-12 32.5zM152 762v98q0 20 12 33.5t33 13.5h98q20 0 33.5 -13t13.5 -34v-98q0 -20 -13.5 -32.5t-33.5 -12.5h-98q-21 0 -33 12t-12 33z" />
<glyph unicode=";" horiz-adv-x="530" d="M152 -111l38 246q6 55 52 55h92q12 0 21.5 -10t9.5 -22q0 -18 -9 -37l-88 -232q-10 -23 -21 -33t-32 -10h-35q-16 0 -24.5 12.5t-3.5 30.5zM176 762v98q0 20 12.5 33.5t32.5 13.5h98q20 0 34 -13t14 -34v-98q0 -20 -13.5 -32.5t-34.5 -12.5h-98q-20 0 -32.5 12t-12.5 33z " />
<glyph unicode="&#x3c;" horiz-adv-x="985" d="M80 709v24q0 29 13 50.5t46 43.5l604 418q37 25 56 25q18 0 29.5 -11.5t11.5 -29.5v-35q0 -20 -9.5 -33.5t-33.5 -30.5l-592 -409l592 -410q25 -16 34 -29.5t9 -33.5v-35q0 -18 -11.5 -29.5t-29.5 -11.5q-19 0 -56 25l-604 417q-33 23 -46 44.5t-13 50.5z" />
<glyph unicode="=" horiz-adv-x="1169" d="M156 344v29q0 20 12 32.5t33 12.5h768q20 0 32.5 -12.5t12.5 -32.5v-29q0 -20 -12.5 -32.5t-32.5 -12.5h-768q-21 0 -33 12.5t-12 32.5zM156 856v29q0 20 12 32.5t33 12.5h768q20 0 32.5 -12.5t12.5 -32.5v-29q0 -20 -12.5 -32.5t-32.5 -12.5h-768q-21 0 -33 12.5 t-12 32.5z" />
<glyph unicode="&#x3e;" horiz-adv-x="983" d="M145 213v35q0 20 9.5 33.5t33.5 29.5l592 410l-592 409q-25 16 -34 30t-9 34v35q0 18 11.5 29.5t29.5 11.5t56 -25l604 -418q33 -23 46 -44t13 -50v-24q0 -29 -13 -50.5t-46 -44.5l-604 -417q-37 -25 -56 -25q-18 0 -29.5 11.5t-11.5 29.5z" />
<glyph unicode="?" horiz-adv-x="1030" d="M72 1047q2 113 61.5 206t160.5 147t228 54q137 0 234.5 -49t145.5 -131t48 -176q0 -106 -49 -184t-145 -179q-86 -90 -128 -153.5t-42 -145.5v-98q0 -20 -12.5 -32.5t-32.5 -12.5h-35q-21 0 -33 12t-12 33v98q0 84 28.5 151.5t69.5 118t109 119.5q84 88 121.5 144.5 t37.5 128.5q0 109 -92 173t-213 64q-129 0 -215 -67.5t-110 -216.5q-8 -45 -50 -45h-32q-18 0 -30.5 11t-12.5 30zM436 45v78q0 20 12.5 33.5t32.5 13.5h78q20 0 33.5 -13.5t13.5 -33.5v-78q0 -20 -13 -32.5t-34 -12.5h-78q-20 0 -32.5 12.5t-12.5 32.5z" />
<glyph unicode="@" horiz-adv-x="1691" d="M125 561q0 121 6 172q35 295 213 458t481 163q348 0 529.5 -159t195.5 -462q4 -86 4 -131q0 -100 -4 -141q-18 -299 -264 -299q-86 0 -138 39t-79 82q-84 -141 -256 -142q-156 0 -246 109.5t-90 308.5t91 309.5t245 110.5q78 0 127 -28.5t84 -71.5v39q0 20 12.5 32.5 t32.5 12.5h35q20 0 32.5 -12.5t12.5 -32.5v-447q0 -92 38 -141t99 -49q80 0 108.5 60t30.5 132q4 41 5 131q0 78 -5 119q-18 254 -160.5 383t-439.5 129q-248 0 -394 -133t-175 -379q-6 -51 -6 -162q0 -109 6 -168q27 -242 173 -374t396 -132q139 0 230.5 25t123 45 t101.5 74q2 2 15.5 13t33.5 11h53q18 0 30.5 -12t12.5 -31q0 -14 -10 -28q-96 -98 -233.5 -156.5t-356.5 -58.5q-307 0 -484 157.5t-210 456.5q-6 59 -6 178zM602 559q0 -129 51.5 -214t159.5 -85q115 0 163 79t48 220t-48 221t-163 80q-111 0 -161 -81t-50 -220z" />
<glyph unicode="A" horiz-adv-x="1331" d="M49 41l4 22l518 1330q16 41 60 41h69q43 0 60 -41l518 -1330l4 -22q0 -16 -12.5 -28.5t-28.5 -12.5h-41q-18 0 -29.5 10t-15.5 21l-127 327h-725l-127 -327q-4 -10 -15 -20.5t-30 -10.5h-41q-16 0 -28.5 12.5t-12.5 28.5zM352 481h627l-313 807z" />
<glyph unicode="B" horiz-adv-x="1337" d="M193 45v1341q0 20 12 34t33 14h534q203 0 307.5 -104.5t104.5 -262.5q0 -121 -53.5 -198.5t-126.5 -112.5q88 -45 148 -137.5t60 -212.5q0 -106 -50 -199.5t-146 -150t-230 -56.5h-548q-21 0 -33 12.5t-12 32.5zM322 123h444q150 0 233.5 79t83.5 204q0 127 -84 204.5 t-233 77.5h-444v-565zM322 811h423q152 0 231 66.5t79 189.5q0 121 -79 182.5t-231 61.5h-423v-500z" />
<glyph unicode="C" horiz-adv-x="1333" d="M133 715q0 127 2 184q10 254 143.5 404.5t399.5 150.5q182 0 303 -66.5t179.5 -168t64.5 -207.5v-4q0 -16 -12.5 -26.5t-30.5 -10.5h-41q-37 0 -45 43q-39 174 -141.5 245.5t-276.5 71.5q-193 0 -299.5 -108.5t-114.5 -333.5q-2 -55 -2 -170t2 -174q8 -225 114.5 -334 t299.5 -109q174 0 276.5 72t141.5 246q8 43 45 43h41q18 0 31.5 -11.5t11.5 -29.5q-6 -106 -64.5 -207.5t-179.5 -168t-303 -66.5q-266 0 -399.5 150.5t-143.5 404.5q-2 55 -2 180z" />
<glyph unicode="D" horiz-adv-x="1386" d="M193 45v1341q0 20 12 34t33 14h436q213 0 337 -62.5t176 -183.5t56 -307q2 -61 2 -162q0 -102 -2 -164q-4 -197 -56 -316.5t-173 -179t-330 -59.5h-446q-21 0 -33 12.5t-12 32.5zM322 123h352q164 0 258 44t136 139t46 259q2 61 2 154q0 90 -2 151q-4 229 -107.5 335 t-342.5 106h-342v-1188z" />
<glyph unicode="E" horiz-adv-x="1212" d="M193 45v1341q0 20 12 34t33 14h798q23 0 35 -12.5t12 -35.5v-30q0 -20 -13 -32.5t-34 -12.5h-714v-523h669q23 0 35 -12t12 -35v-30q0 -20 -13 -32.5t-34 -12.5h-669v-543h731q23 0 35 -12.5t12 -34.5v-31q0 -20 -13.5 -32.5t-33.5 -12.5h-815q-21 0 -33 12.5t-12 32.5z " />
<glyph unicode="F" horiz-adv-x="1167" d="M193 45v1341q0 20 12 34t33 14h790q23 0 35 -12.5t12 -35.5v-30q0 -20 -13 -32.5t-34 -12.5h-706v-551h665q23 0 35 -12.5t12 -34.5v-31q0 -20 -13 -32.5t-34 -12.5h-665v-592q0 -20 -13.5 -32.5t-34.5 -12.5h-36q-21 0 -33 12.5t-12 32.5z" />
<glyph unicode="G" horiz-adv-x="1359" d="M135 717q0 133 2 194q8 248 149.5 395.5t397.5 147.5q174 0 293 -65.5t177 -154.5t63 -159v-4q0 -16 -12.5 -26.5t-30.5 -10.5h-46q-18 0 -26 8.5t-17 32.5q-35 109 -134 182.5t-267 73.5q-190 0 -300 -104.5t-118 -325.5q-2 -61 -2 -184t2 -185q8 -221 118 -325.5 t300 -104.5t307 108.5t117 321.5v105h-356q-20 0 -32.5 13.5t-12.5 33.5v29q0 20 12 33.5t33 13.5h438q23 0 35 -12.5t12 -34.5v-181q0 -164 -65.5 -288.5t-190.5 -194t-297 -69.5q-256 0 -397.5 147t-149.5 395q-2 61 -2 195z" />
<glyph unicode="H" horiz-adv-x="1433" d="M193 45v1341q0 20 12 34t33 14h36q23 0 35.5 -12.5t12.5 -35.5v-598h790v598q0 20 12.5 34t32.5 14h37q23 0 35 -12.5t12 -35.5v-1341q0 -20 -13.5 -32.5t-33.5 -12.5h-37q-20 0 -32.5 12.5t-12.5 32.5v621h-790v-621q0 -20 -13.5 -32.5t-34.5 -12.5h-36q-21 0 -33 12.5 t-12 32.5z" />
<glyph unicode="I" horiz-adv-x="514" d="M193 45v1344q0 20 12 32.5t33 12.5h38q20 0 33 -12.5t13 -32.5v-1344q0 -20 -12.5 -32.5t-33.5 -12.5h-38q-21 0 -33 12.5t-12 32.5z" />
<glyph unicode="J" horiz-adv-x="1265" d="M92 397q0 20 11.5 32.5t31.5 12.5h41q20 0 31.5 -12t13.5 -31q12 -152 113.5 -224.5t255.5 -72.5q176 0 271 116t95 306v787h-755q-20 0 -32.5 12t-12.5 33v33q0 20 12 32.5t33 12.5h837q23 0 35 -12.5t12 -35.5v-864q0 -246 -130 -394t-365 -148q-213 0 -351.5 105 t-146.5 312z" />
<glyph unicode="K" horiz-adv-x="1177" d="M193 45v1341q0 20 12 34t33 14h36q23 0 35.5 -12.5t12.5 -35.5v-532l620 549q16 12 33.5 21.5t44.5 9.5h33q16 0 28.5 -12.5t12.5 -28.5t-11 -27l-694 -618l737 -678q12 -12 13 -29q0 -16 -12.5 -28.5t-28.5 -12.5h-35q-27 0 -44.5 9t-33.5 22l-663 606v-592 q0 -20 -13.5 -32.5t-34.5 -12.5h-36q-21 0 -33 12.5t-12 32.5z" />
<glyph unicode="L" horiz-adv-x="1122" d="M193 45v1344q0 20 12 32.5t33 12.5h38q20 0 33 -12.5t13 -32.5v-1266h706q23 0 35 -12.5t12 -34.5v-31q0 -20 -13 -32.5t-34 -12.5h-790q-21 0 -33 12.5t-12 32.5z" />
<glyph unicode="M" horiz-adv-x="1597" d="M193 45v1341q0 23 13 35.5t34 12.5h51q31 0 43 -27l465 -905l467 905q14 27 43 27h49q23 0 35 -12.5t12 -35.5v-1341q0 -20 -13.5 -32.5t-33.5 -12.5h-37q-20 0 -32.5 12.5t-12.5 32.5v1110l-391 -770q-18 -41 -64 -41h-45q-45 0 -63 41l-391 770v-1110 q0 -20 -12.5 -32.5t-33.5 -12.5h-36q-21 0 -34 12.5t-13 32.5z" />
<glyph unicode="N" horiz-adv-x="1400" d="M193 45v1341q0 20 12 34t33 14h43q27 0 43 -25l755 -1155v1132q0 20 12.5 34t32.5 14h37q23 0 35 -12.5t12 -35.5v-1339q0 -20 -12 -33.5t-33 -13.5h-45q-27 0 -43 25l-753 1151v-1131q0 -20 -13.5 -32.5t-34.5 -12.5h-36q-21 0 -33 12.5t-12 32.5z" />
<glyph unicode="O" horiz-adv-x="1355" d="M135 717q0 111 2 172q8 279 151.5 422t389.5 143t389 -143.5t152 -421.5q4 -123 4 -172t-4 -172q-14 -565 -541 -565t-541 565q-2 61 -2 172zM264 717q0 -100 2 -162q8 -229 118 -341t294 -112t293.5 112t118.5 341q4 123 4 162t-4 162q-8 229 -119 340.5t-293 111.5 t-293 -111.5t-119 -340.5q-2 -61 -2 -162z" />
<glyph unicode="P" horiz-adv-x="1286" d="M193 45v1341q0 20 12 34t33 14h497q219 0 345 -110t126 -314q0 -205 -126 -314.5t-345 -109.5h-413v-541q0 -20 -13.5 -32.5t-34.5 -12.5h-36q-21 0 -33 12.5t-12 32.5zM322 709h403q176 0 264 76.5t88 224.5q0 147 -88 224t-264 77h-403v-602z" />
<glyph unicode="Q" horiz-adv-x="1355" d="M135 717q0 111 2 172q8 279 151.5 422t389.5 143t389 -143.5t152 -421.5q4 -123 4 -172t-4 -172q-10 -293 -150 -430l131 -185q6 -12 6 -22q0 -16 -12 -28.5t-29 -12.5h-45q-30 0 -65 47l-90 125q-123 -59 -287 -59q-526 0 -541 565q-2 61 -2 172zM264 717q0 -100 2 -162 q8 -229 118 -341t294 -112t293.5 112t118.5 341q4 123 4 162t-4 162q-8 229 -119 340.5t-293 111.5t-293 -111.5t-119 -340.5q-2 -61 -2 -162z" />
<glyph unicode="R" horiz-adv-x="1310" d="M193 45v1341q0 20 12 34t33 14h477q221 0 346 -104.5t125 -309.5q0 -162 -80 -261.5t-229 -133.5l329 -562q6 -12 6 -22q0 -16 -12 -28.5t-29 -12.5h-24q-31 0 -46.5 13.5t-31.5 41.5l-326 551h-421v-561q0 -20 -13.5 -32.5t-34.5 -12.5h-36q-21 0 -33 12.5t-12 32.5z M322 729h383q178 0 265 72.5t87 218.5q0 145 -87 218t-265 73h-383v-582z" />
<glyph unicode="S" horiz-adv-x="1239" d="M98 348q0 16 12.5 28.5t30.5 12.5h41q37 0 45 -41q14 -98 112.5 -172t283.5 -74q195 0 290 71t95 198q0 78 -46.5 128t-134.5 88t-266 95q-158 51 -247 100t-132 121t-43 182q0 104 56.5 188.5t163 132.5t253.5 48q152 0 260.5 -54t164 -137t59.5 -167q0 -16 -11.5 -28.5 t-31.5 -12.5h-41q-14 0 -28.5 9t-16.5 32q-12 102 -109.5 168.5t-245.5 66.5q-158 0 -251 -61.5t-93 -184.5q0 -80 42 -132t126 -90t248 -91q168 -53 262 -102t142.5 -119t48.5 -180q0 -184 -137.5 -287.5t-376.5 -103.5q-160 0 -278 52t-180.5 136t-66.5 180z" />
<glyph unicode="T" horiz-adv-x="1140" d="M55 1356v30q0 20 12.5 34t32.5 14h938q23 0 35 -12.5t12 -35.5v-30q0 -20 -13 -32.5t-34 -12.5h-403v-1266q0 -20 -13.5 -32.5t-33.5 -12.5h-37q-21 0 -33 12.5t-12 32.5v1266h-406q-20 0 -32.5 12t-12.5 33z" />
<glyph unicode="U" horiz-adv-x="1415" d="M180 555v831q0 20 12.5 34t32.5 14h37q23 0 35 -12.5t12 -35.5v-837q0 -225 104.5 -336t295.5 -111q188 0 292.5 111t104.5 336v837q0 23 13.5 35.5t33.5 12.5h37q20 0 32.5 -13.5t12.5 -34.5v-831q0 -293 -135 -434t-391 -141t-392.5 142t-136.5 433z" />
<glyph unicode="V" horiz-adv-x="1306" d="M76 1393q0 16 12 28.5t29 12.5h43q18 0 29.5 -10.5t15.5 -20.5l448 -1253l449 1253q4 10 15 20.5t30 10.5h43q16 0 28.5 -12.5t12.5 -28.5l-4 -23l-475 -1321q-18 -49 -70 -49h-57q-52 0 -70 49l-475 1321z" />
<glyph unicode="W" horiz-adv-x="1613" d="M98 1393q0 16 12.5 28.5t28.5 12.5h43q39 0 45 -31l240 -1167l254 833q16 47 63 47h45q47 0 64 -47l254 -833l239 1167q6 31 46 31h43q16 0 28.5 -12.5t12.5 -28.5l-5 -25l-280 -1319q-6 -27 -19.5 -38t-37.5 -11h-31q-47 0 -64 49l-272 864l-272 -864q-14 -49 -64 -49 h-31q-24 0 -37.5 11.5t-19.5 37.5l-281 1319z" />
<glyph unicode="X" horiz-adv-x="1247" d="M61 41q0 14 9 27l477 661l-459 637q-8 12 -8 27q0 16 12 28.5t29 12.5h49q27 0 47 -31l412 -574l403 574q23 31 47 31h45q16 0 28.5 -12.5t12.5 -28.5q0 -14 -8 -27l-452 -641l475 -657q8 -12 8 -27q0 -16 -12.5 -28.5t-28.5 -12.5h-49q-25 0 -47 31l-428 592l-428 -592 q-20 -31 -48 -31h-45q-16 0 -28.5 12.5t-12.5 28.5z" />
<glyph unicode="Y" horiz-adv-x="1294" d="M74 1393q0 16 12 28.5t29 12.5h41q29 0 47 -31l444 -723l445 723q18 31 47 31h41q16 0 28.5 -12.5t12.5 -28.5q0 -10 -9 -27l-499 -819v-502q0 -20 -13.5 -32.5t-33.5 -12.5h-39q-21 0 -33 12.5t-12 32.5v502l-500 819q-8 16 -8 27z" />
<glyph unicode="Z" horiz-adv-x="1185" d="M86 47v41q0 35 14.5 55.5t16.5 22.5l807 1145h-774q-20 0 -33 12t-13 33v30q0 20 12.5 34t33.5 14h882q23 0 35 -12.5t12 -35.5v-40q0 -23 -7 -38.5t-19 -35.5l-803 -1149h803q23 0 35 -12.5t12 -34.5v-31q0 -20 -13.5 -32.5t-33.5 -12.5h-922q-20 0 -32.5 13.5 t-12.5 33.5z" />
<glyph unicode="[" horiz-adv-x="616" d="M160 -281v1825q0 20 12 32.5t33 12.5h309q20 0 32.5 -12t12.5 -33v-28q0 -20 -12 -33t-33 -13h-229v-1677h229q20 0 32.5 -12t12.5 -33v-29q0 -20 -12 -32.5t-33 -12.5h-309q-21 0 -33 12.5t-12 32.5z" />
<glyph unicode="\" horiz-adv-x="940" d="M53 1569q0 16 12.5 28.5t28.5 12.5h35q18 0 29.5 -10.5t15.5 -20.5l705 -1685q6 -16 6 -25q0 -16 -12.5 -28.5t-28.5 -12.5h-35q-18 0 -29.5 10t-15.5 21l-705 1685q-6 16 -6 25z" />
<glyph unicode="]" horiz-adv-x="616" d="M57 -252q0 20 12.5 32.5t32.5 12.5h230v1677h-230q-20 0 -32.5 12.5t-12.5 33.5v28q0 20 12.5 32.5t32.5 12.5h310q20 0 32.5 -12t12.5 -33v-1825q0 -20 -12.5 -32.5t-32.5 -12.5h-310q-20 0 -32.5 12.5t-12.5 32.5v29z" />
<glyph unicode="^" horiz-adv-x="856" d="M150 1200q0 16 24 41l178 174q18 18 32.5 23.5t33.5 5.5h20q20 0 33.5 -5t32.5 -24l178 -174q25 -25 25 -41q0 -23 -29 -22h-35q-14 0 -28.5 4t-22.5 10l-164 123l-164 -123q-8 -6 -22.5 -10t-28.5 -4h-35q-28 -1 -28 22z" />
<glyph unicode="_" horiz-adv-x="1542" d="M137 -12v28q0 20 12.5 32.5t32.5 12.5h1178q20 0 32.5 -12t12.5 -33v-28q0 -20 -12.5 -32.5t-32.5 -12.5h-1178q-20 0 -32.5 12t-12.5 33z" />
<glyph unicode="`" horiz-adv-x="636" d="M143 1446q0 39 39 39h84q29 0 43.5 -7.5t32.5 -29.5l141 -170q10 -10 11 -27q0 -33 -33 -32h-21q-22 0 -34.5 4t-28.5 16l-223 182q-10 10 -11 25z" />
<glyph unicode="a" d="M86 285q0 135 109.5 221t296.5 110l323 46v71q0 113 -68.5 173.5t-209.5 60.5q-104 0 -171 -41t-85 -99q-8 -25 -19.5 -34t-30.5 -9h-28q-18 0 -31.5 13.5t-13.5 31.5q0 45 41 105.5t127 105.5t211 45q219 0 311 -104t92 -254v-682q0 -20 -12.5 -32.5t-32.5 -12.5h-35 q-20 0 -32.5 12.5t-12.5 32.5v96q-45 -68 -132 -114.5t-230 -46.5q-99 0 -183 40.5t-134 110.5t-50 154zM211 295q0 -94 79 -145.5t183 -51.5q150 0 246 98.5t96 282.5v70l-264 -37q-168 -23 -254 -78t-86 -139z" />
<glyph unicode="b" horiz-adv-x="1187" d="M168 45v1364q0 20 12.5 32.5t32.5 12.5h35q20 0 32.5 -12t12.5 -33v-485q120 161 341 161h3q221 0 326.5 -144t111.5 -351q2 -20 2 -58q0 -37 -2 -57q-6 -207 -111.5 -351t-326.5 -144h-3q-223 0 -341 161v-96q0 -20 -12.5 -32.5t-32.5 -12.5h-35q-20 0 -32.5 12.5 t-12.5 32.5zM291 539l2 -80q6 -145 88 -253t244 -108q166 0 242.5 105.5t82.5 271.5q2 20 2 57q0 190 -73.5 312.5t-253.5 122.5q-109 0 -182.5 -51.5t-110.5 -130t-39 -167.5z" />
<glyph unicode="c" d="M115 532l2 82q6 223 122.5 347t329.5 124q135 0 230.5 -48t142.5 -122.5t51 -154.5q2 -18 -12 -31.5t-33 -13.5h-28q-20 0 -29.5 9t-20.5 34q-41 113 -114.5 161t-186.5 48q-147 0 -234 -89.5t-93 -273.5l-2 -72l2 -71q6 -184 93 -273.5t234 -89.5q113 0 186.5 48.5 t114.5 160.5q10 25 19.5 34t30.5 9h28q18 0 32.5 -13t12.5 -32q-4 -80 -51 -154.5t-142 -122.5t-231 -48q-213 0 -329.5 123.5t-122.5 347.5z" />
<glyph unicode="d" horiz-adv-x="1187" d="M111 532l2 58q6 207 111.5 351t326.5 144q223 0 344 -161v485q0 20 12.5 32.5t32.5 12.5h35q20 0 32.5 -12t12.5 -33v-1364q0 -20 -12.5 -32.5t-32.5 -12.5h-35q-20 0 -32.5 12.5t-12.5 32.5v96q-118 -161 -341 -161h-3q-221 0 -326.5 144t-111.5 351zM236 532 q0 -190 73.5 -312t253.5 -122q162 0 244 107.5t88 253.5q2 20 2 80q0 59 -2 79q-2 88 -39 167t-110.5 130.5t-182.5 51.5q-166 0 -242.5 -105.5t-82.5 -271.5z" />
<glyph unicode="e" horiz-adv-x="1118" d="M111 532l2 82q16 213 134 342t314 129q213 0 333 -141t120 -387v-31q0 -20 -13.5 -32.5t-33.5 -12.5h-729v-20q4 -96 44 -179t111.5 -133.5t167.5 -50.5q113 0 183.5 44t101.5 89q18 25 27.5 31t33.5 6h33q18 0 30.5 -10t12.5 -27q0 -43 -54.5 -103t-150.5 -104t-217 -44 q-194 0 -313 128t-135 343zM238 596h651v8q0 158 -89 260.5t-239 102.5t-236.5 -102.5t-86.5 -260.5v-8z" />
<glyph unicode="f" horiz-adv-x="737" d="M39 991v29q0 20 12 32.5t33 12.5h182v117q0 156 67.5 245t241.5 89h107q20 0 32.5 -12.5t12.5 -33.5v-28q0 -20 -12.5 -32.5t-32.5 -12.5h-107q-104 0 -144 -54.5t-40 -171.5v-106h271q20 0 32.5 -12.5t12.5 -32.5v-29q0 -20 -12.5 -32.5t-32.5 -12.5h-271v-901 q0 -20 -12 -32.5t-33 -12.5h-35q-20 0 -32.5 12.5t-12.5 32.5v901h-182q-20 0 -32.5 12.5t-12.5 32.5z" />
<glyph unicode="g" horiz-adv-x="1189" d="M113 532l2 58q6 207 111.5 351t326.5 144q223 0 344 -161v94q0 20 12.5 33.5t32.5 13.5h33q20 0 33.5 -13.5t13.5 -33.5v-998q0 -219 -102.5 -345t-356.5 -126q-160 0 -256 55.5t-134 126t-38 124.5q0 18 13.5 30.5t31.5 12.5h29q18 0 29.5 -9.5t19.5 -33.5 q63 -186 295 -187q176 0 260 73t84 259v141q-118 -161 -341 -161h-3q-221 0 -326.5 144t-111.5 351zM238 532l2 -57q6 -166 82.5 -271.5t242.5 -105.5q162 0 244 107.5t88 253.5q2 20 2 73t-2 74q-6 145 -88 253t-244 108q-166 0 -242.5 -105.5t-82.5 -271.5z" />
<glyph unicode="h" horiz-adv-x="1210" d="M168 45v1364q0 20 12.5 32.5t32.5 12.5h35q20 0 32.5 -12t12.5 -33v-485q61 80 140 120.5t204 40.5q201 0 309.5 -128t108.5 -330v-582q0 -20 -12.5 -32.5t-32.5 -12.5h-35q-20 0 -32.5 12.5t-12.5 32.5v571q0 166 -81 258.5t-233 92.5q-147 0 -235 -93.5t-88 -257.5 v-571q0 -20 -12.5 -32.5t-32.5 -12.5h-35q-20 0 -32.5 12.5t-12.5 32.5z" />
<glyph unicode="i" horiz-adv-x="456" d="M143 1329v78q0 20 12.5 33.5t32.5 13.5h78q20 0 33.5 -13.5t13.5 -33.5v-78q0 -20 -13 -32.5t-34 -12.5h-78q-20 0 -32.5 12.5t-12.5 32.5zM166 45v975q0 20 12 32.5t33 12.5h35q20 0 32.5 -12.5t12.5 -32.5v-975q0 -20 -12.5 -32.5t-32.5 -12.5h-35q-21 0 -33 12.5 t-12 32.5z" />
<glyph unicode="j" horiz-adv-x="477" d="M-53 -315q0 20 12 32.5t33 12.5h8q113 0 148.5 57t35.5 168v1065q0 20 12.5 32.5t32.5 12.5h35q20 0 32.5 -12.5t12.5 -32.5v-1065q0 -162 -67.5 -253t-241.5 -91h-8q-21 0 -33 12t-12 33v29zM162 1329v78q0 20 12 33.5t33 13.5h78q20 0 33.5 -13.5t13.5 -33.5v-78 q0 -20 -13.5 -32.5t-33.5 -12.5h-78q-21 0 -33 12.5t-12 32.5z" />
<glyph unicode="k" horiz-adv-x="997" d="M168 45v1364q0 20 12.5 32.5t32.5 12.5h35q20 0 32.5 -12t12.5 -33v-725l457 346q33 25 45 30t41 5h38q18 0 29.5 -11.5t11.5 -29.5q0 -23 -26 -41l-518 -393l569 -508q27 -25 27 -41q0 -18 -11.5 -29.5t-29.5 -11.5h-33q-31 0 -45 5t-41 30l-514 457v-447 q0 -20 -12.5 -32.5t-32.5 -12.5h-35q-20 0 -32.5 12.5t-12.5 32.5z" />
<glyph unicode="l" horiz-adv-x="460" d="M168 45v1364q0 20 12.5 32.5t32.5 12.5h35q20 0 32.5 -12t12.5 -33v-1364q0 -20 -12.5 -32.5t-32.5 -12.5h-35q-20 0 -32.5 12.5t-12.5 32.5z" />
<glyph unicode="m" horiz-adv-x="1798" d="M166 45v975q0 20 12 32.5t33 12.5h35q20 0 32.5 -12.5t12.5 -32.5v-72q53 68 123.5 102.5t169.5 34.5q229 0 327 -192q49 88 140.5 140t208.5 52q170 0 276 -115.5t106 -328.5v-596q0 -20 -12 -32.5t-33 -12.5h-34q-20 0 -32.5 12.5t-12.5 32.5v576q0 186 -77 266 t-202 80q-111 0 -191.5 -81t-80.5 -265v-576q0 -20 -12.5 -32.5t-32.5 -12.5h-35q-20 0 -32.5 12.5t-12.5 32.5v576q0 184 -80 265t-199 81q-111 0 -191.5 -81t-80.5 -263v-578q0 -20 -12.5 -32.5t-32.5 -12.5h-35q-21 0 -33 12.5t-12 32.5z" />
<glyph unicode="n" horiz-adv-x="1208" d="M166 45v975q0 20 12 32.5t33 12.5h35q20 0 32.5 -12.5t12.5 -32.5v-96q61 80 140 120.5t204 40.5q201 0 309.5 -128t108.5 -330v-582q0 -20 -12.5 -32.5t-32.5 -12.5h-35q-20 0 -32.5 12.5t-12.5 32.5v571q0 166 -81 258.5t-233 92.5q-147 0 -235 -93.5t-88 -257.5v-571 q0 -20 -12.5 -32.5t-32.5 -12.5h-35q-21 0 -33 12.5t-12 32.5z" />
<glyph unicode="o" horiz-adv-x="1142" d="M115 532l2 86q6 207 123.5 337t330.5 130t331 -130t124 -337q2 -20 2 -86t-2 -86q-6 -207 -124 -336.5t-331 -129.5t-330.5 130t-123.5 336zM240 532l2 -75q6 -172 95 -265.5t234 -93.5q146 0 235 93.5t95 265.5q2 20 2 75t-2 76q-6 172 -95 265.5t-235 93.5 q-145 0 -234 -93.5t-95 -265.5z" />
<glyph unicode="p" horiz-adv-x="1189" d="M168 -344v1364q0 20 12.5 32.5t32.5 12.5h35q20 0 32.5 -12.5t12.5 -32.5v-96q118 161 341 161h3q221 0 326.5 -140t111.5 -345q2 -20 2 -68q0 -47 -2 -67q-6 -205 -111.5 -345t-326.5 -140q-223 0 -344 161v-485q0 -20 -12.5 -32.5t-32.5 -12.5h-35q-20 0 -32.5 12 t-12.5 33zM291 526l2 -80q2 -88 39 -166.5t110.5 -130t182.5 -51.5q166 0 242.5 105.5t82.5 271.5q2 20 2 57q0 190 -73.5 312.5t-253.5 122.5q-162 0 -244 -107.5t-88 -253.5z" />
<glyph unicode="q" horiz-adv-x="1189" d="M113 532l2 68q6 205 111.5 345t326.5 140q225 0 344 -161v96q0 20 12.5 32.5t32.5 12.5h35q20 0 32.5 -12.5t12.5 -32.5v-1364q0 -20 -12.5 -32.5t-32.5 -12.5h-35q-20 0 -32.5 12t-12.5 33v485q-120 -161 -341 -161h-3q-221 0 -326.5 140t-111.5 345zM238 532 q0 -190 73.5 -312t253.5 -122q109 0 182.5 51.5t110.5 130t39 166.5q2 20 2 80q0 59 -2 80q-6 145 -88 253t-244 108q-166 0 -242.5 -105.5t-82.5 -271.5z" />
<glyph unicode="r" horiz-adv-x="712" d="M166 45v973q0 20 12 33.5t33 13.5h33q20 0 33.5 -13.5t13.5 -33.5v-94q74 141 278 141h76q20 0 32.5 -12.5t12.5 -32.5v-29q0 -20 -12 -32.5t-33 -12.5h-88q-123 0 -194.5 -71.5t-71.5 -194.5v-635q0 -20 -13.5 -32.5t-33.5 -12.5h-33q-21 0 -33 12.5t-12 32.5z" />
<glyph unicode="s" horiz-adv-x="1007" d="M96 219q0 18 14.5 29.5t30.5 11.5h31q14 0 23.5 -5t21.5 -22q45 -63 109.5 -99t177.5 -36q127 0 204.5 48.5t77.5 138.5q0 55 -31.5 90t-102 60.5t-210.5 58.5q-182 41 -248.5 112.5t-66.5 181.5q0 76 42 143.5t125 110.5t200 43q123 0 207.5 -42t126.5 -97t42 -90 q0 -18 -13 -29.5t-32 -11.5h-30q-29 0 -45 27q-41 61 -93.5 93t-162.5 32q-119 0 -180.5 -49.5t-61.5 -129.5q0 -49 24.5 -81.5t92 -60.5t196.5 -56q190 -43 268 -115t78 -190q0 -84 -47 -154t-139 -110.5t-221 -40.5q-133 0 -224.5 45t-137.5 102t-46 92z" />
<glyph unicode="t" horiz-adv-x="735" d="M41 991v29q0 20 12.5 32.5t32.5 12.5h160v344q0 20 12 32.5t33 12.5h35q20 0 32.5 -12t12.5 -33v-344h254q20 0 32.5 -12.5t12.5 -32.5v-29q0 -20 -12.5 -32.5t-32.5 -12.5h-254v-596q0 -115 37.5 -173t126.5 -58h110q20 0 32.5 -12.5t12.5 -32.5v-29q0 -20 -12 -32.5 t-33 -12.5h-121q-151 0 -214.5 91t-63.5 251v604h-160q-20 0 -32.5 12.5t-12.5 32.5z" />
<glyph unicode="u" horiz-adv-x="1198" d="M156 438v582q0 20 12 32.5t33 12.5h35q20 0 32.5 -12.5t12.5 -32.5v-571q0 -350 305 -351q147 0 234 93.5t87 257.5v571q0 20 12.5 32.5t32.5 12.5h35q20 0 32.5 -12.5t12.5 -32.5v-975q0 -20 -12 -32.5t-33 -12.5h-35q-20 0 -32.5 12.5t-12.5 32.5v96 q-61 -80 -140 -120.5t-202 -40.5q-200 0 -304.5 126.5t-104.5 331.5z" />
<glyph unicode="v" d="M74 1024q0 16 12 28.5t29 12.5h43q18 0 29.5 -10.5t15.5 -20.5l346 -884l346 884q4 10 15.5 20.5t29.5 10.5h43q16 0 28.5 -12.5t12.5 -28.5l-4 -23l-377 -950q-20 -51 -78 -51h-33q-57 0 -77 51l-377 950z" />
<glyph unicode="w" horiz-adv-x="1609" d="M84 1024q0 16 12.5 28.5t28.5 12.5h39q18 0 30.5 -10.5t14.5 -20.5l252 -852l268 842q4 16 18.5 28.5t36.5 12.5h41q23 0 37.5 -12.5t18.5 -28.5l268 -842l252 852q2 10 14 20.5t31 10.5h39q16 0 28.5 -12.5t12.5 -28.5l-4 -23l-289 -950q-10 -27 -24.5 -39t-41.5 -12 h-34q-55 0 -70 51l-258 807l-258 -807q-14 -51 -70 -51h-35q-26 0 -40.5 12.5t-24.5 38.5l-289 950z" />
<glyph unicode="x" horiz-adv-x="1060" d="M72 41q0 20 16 41l361 463l-343 438q-16 20 -16 41q0 16 12.5 28.5t28.5 12.5h43q18 0 27.5 -7t23.5 -24l307 -395l308 393q2 2 10 12.5t18.5 15.5t22.5 5h41q16 0 28.5 -12.5t12.5 -28.5q0 -20 -17 -41l-346 -444l361 -457q16 -20 16 -41q0 -16 -12 -28.5t-29 -12.5h-43 q-29 0 -51 31l-324 413l-323 -413q-14 -16 -23.5 -23.5t-27.5 -7.5h-41q-17 0 -29 12.5t-12 28.5z" />
<glyph unicode="y" horiz-adv-x="1089" d="M72 1024q0 16 12 28.5t29 12.5h43q33 0 47 -31l344 -811l352 811q16 31 47 31h41q16 0 28.5 -12.5t12.5 -28.5q0 -10 -12 -41l-582 -1341q-14 -31 -47 -31h-41q-16 0 -28.5 12t-12.5 29q0 10 12 41l158 368l-391 922q-12 31 -12 41z" />
<glyph unicode="z" horiz-adv-x="1003" d="M86 45v35q0 23 29 63l602 803h-565q-20 0 -33 12.5t-13 32.5v29q0 20 12.5 32.5t33.5 12.5h688q20 0 32.5 -12.5t12.5 -32.5v-35q0 -23 -29 -63l-598 -803h623q20 0 32.5 -12.5t12.5 -32.5v-29q0 -20 -12.5 -32.5t-32.5 -12.5h-750q-20 0 -32.5 12.5t-12.5 32.5z" />
<glyph unicode="{" horiz-adv-x="704" d="M76 621v24q0 25 10 41t39 35l12 8q59 43 86 100.5t27 167.5q0 217 20.5 338t95 187.5t228.5 66.5h10q20 0 32.5 -12t12.5 -33v-28q0 -20 -12 -33t-33 -13h-10q-102 0 -148.5 -51t-58.5 -151.5t-12 -313.5q0 -119 -37 -196.5t-117 -124.5q80 -47 117 -125t37 -197 q0 -213 12 -314t58.5 -152.5t148.5 -51.5h10q20 0 32.5 -12t12.5 -33v-29q0 -20 -12 -32.5t-33 -12.5h-10q-154 0 -228.5 68t-95 187.5t-20.5 338.5q0 111 -26.5 169.5t-88.5 101.5l-10 6q-29 18 -39 34.5t-10 41.5z" />
<glyph unicode="|" horiz-adv-x="448" d="M162 -381v2171q0 20 12 32.5t33 12.5h35q20 0 32.5 -12.5t12.5 -32.5v-2171q0 -20 -12.5 -32.5t-32.5 -12.5h-35q-21 0 -33 12.5t-12 32.5z" />
<glyph unicode="}" horiz-adv-x="704" d="M55 -252q0 20 12.5 32.5t32.5 12.5h11q102 0 148 51.5t58.5 151.5t12.5 313q0 119 36.5 197t116.5 125q-80 47 -116.5 125t-36.5 196q0 213 -12.5 314.5t-58.5 152.5t-148 51h-11q-20 0 -32.5 12.5t-12.5 33.5v28q0 20 12.5 32.5t32.5 12.5h11q153 0 228 -67.5 t95.5 -187.5t20.5 -339q0 -111 26.5 -169t87.5 -101l11 -6q29 -18 39 -34.5t10 -41.5v-25q0 -25 -10.5 -41t-38.5 -34l-13 -8q-59 -43 -85.5 -100.5t-26.5 -168.5q0 -217 -20.5 -338t-95.5 -187.5t-228 -66.5h-11q-20 0 -32.5 12.5t-12.5 32.5v29z" />
<glyph unicode="~" horiz-adv-x="1153" d="M158 551v47q0 25 32.5 51.5t85 44t107.5 17.5q61 0 108.5 -10.5t102.5 -28.5q57 -16 95 -24.5t85 -8.5q43 0 75 13.5t54.5 28.5t32.5 21q20 8 27 9q16 0 25 -9.5t9 -25.5v-47q0 -25 -32.5 -51.5t-85 -44t-107.5 -17.5t-99 9.5t-104 27.5q-53 16 -95 25.5t-93 9.5 q-43 0 -75 -13.5t-54.5 -29t-32.5 -21.5q-20 -8 -26 -8q-15 0 -25 10.5t-10 24.5z" />
<glyph unicode="&#xa1;" horiz-adv-x="444" d="M137 940v78q0 20 13.5 32.5t33.5 12.5h78q21 0 33 -12.5t12 -32.5v-78q0 -20 -12 -33.5t-33 -13.5h-78q-20 0 -33.5 13.5t-13.5 33.5zM160 -326v1051q0 20 12 32.5t33 12.5h35q20 0 32.5 -12.5t12.5 -32.5v-1051q0 -20 -12.5 -32.5t-32.5 -12.5h-35q-20 0 -32.5 12.5 t-12.5 32.5z" />
<glyph unicode="&#xa2;" horiz-adv-x="1114" d="M123 532l2 82q4 203 102.5 326t272.5 141v123q0 20 12 32.5t33 12.5h33q20 0 32.5 -12t12.5 -33v-121q129 -12 214 -68.5t123.5 -127t40.5 -127.5q2 -18 -12 -31.5t-33 -13.5h-28q-20 0 -29.5 9t-19.5 34q-78 209 -318 209q-133 0 -219 -90.5t-92 -272.5l-2 -72l2 -71 q6 -182 92 -272.5t219 -90.5q240 0 318 209q10 25 19 34t30 9h28q18 0 33 -13t12 -32q-2 -59 -40.5 -130t-123.5 -126t-214 -67v-142q0 -20 -12.5 -32.5t-32.5 -12.5h-33q-21 0 -33 12.5t-12 32.5v144q-174 18 -272.5 141t-102.5 326z" />
<glyph unicode="&#xa3;" horiz-adv-x="1347" d="M106 39q4 139 71 216t171 95q-2 59 -26 213l-13 82h-157q-20 0 -33 12.5t-13 32.5v33q0 20 12.5 32.5t33.5 12.5h143q-6 78 -6 166q0 143 50 262t153.5 189.5t257.5 70.5q147 0 250.5 -61.5t156.5 -161.5t57 -219q0 -18 -12 -31.5t-31 -13.5h-36q-16 0 -30.5 12t-17.5 31 q-55 322 -339 321q-160 0 -245 -109.5t-85 -291.5q0 -96 8 -164h432q20 0 32.5 -12.5t12.5 -32.5v-33q0 -20 -12 -32.5t-33 -12.5h-414l7 -47q25 -164 28 -252q66 -12 114 -42t116 -85q66 -55 109.5 -80.5t101.5 -25.5q88 0 124.5 49t51.5 143q2 12 13 25.5t26 13.5h51 q18 0 28.5 -11t10.5 -28q-2 -150 -86 -232.5t-219 -82.5q-97 0 -162.5 34.5t-145.5 102.5q-59 53 -104 78.5t-98 25.5q-88 0 -124 -47t-50 -141q-6 -43 -43 -43h-48q-18 0 -28.5 11.5t-10.5 27.5z" />
<glyph unicode="&#xa4;" horiz-adv-x="1183" d="M145 240q0 16 15 30l88 86q-86 111 -86 258t86 258l-88 86q-14 18 -15 33q0 16 15 31l24 25q14 14 33 14q18 0 31 -14l86 -89q117 86 258 86t258 -86l86 89q14 14 33 14q18 0 30 -14l25 -25q14 -12 14 -31q0 -18 -14 -33l-88 -86q86 -117 86 -258t-86 -258l88 -86 q14 -12 14 -30t-14 -33l-25 -25q-14 -14 -30 -14q-14 0 -33 14l-86 88q-111 -86 -258 -86t-258 86l-86 -88q-14 -14 -31 -14q-14 0 -33 14l-24 25q-14 18 -15 33zM285 614q0 -84 41 -154.5t111.5 -111.5t154.5 -41t154.5 41t111.5 111.5t41 154.5t-41 155t-111.5 112 t-154.5 41t-154.5 -41t-111.5 -112t-41 -155z" />
<glyph unicode="&#xa5;" horiz-adv-x="1200" d="M74 1393q0 16 12 28.5t29 12.5h45q29 0 47 -31l393 -664l393 664q18 31 47 31h45q16 0 28.5 -12.5t12.5 -28.5q0 -11 -8 -27l-442 -745h293q20 0 32.5 -12.5t12.5 -33.5v-32q0 -20 -12.5 -32.5t-32.5 -12.5h-303v-123h303q20 0 32.5 -12.5t12.5 -32.5v-33 q0 -20 -12.5 -32.5t-32.5 -12.5h-303v-207q0 -20 -13.5 -32.5t-34.5 -12.5h-38q-20 0 -32.5 12.5t-12.5 32.5v207h-304q-20 0 -32.5 12t-12.5 33v33q0 20 12.5 32.5t32.5 12.5h304v123h-304q-20 0 -32.5 12t-12.5 33v32q0 20 12.5 33t32.5 13h293l-442 745q-8 16 -8 27z" />
<glyph unicode="&#xa6;" horiz-adv-x="460" d="M168 45v635q0 20 12.5 32.5t32.5 12.5h35q20 0 32.5 -12.5t12.5 -32.5v-635q0 -20 -12.5 -32.5t-32.5 -12.5h-35q-20 0 -32.5 12.5t-12.5 32.5zM168 1018v635q0 20 12.5 32.5t32.5 12.5h35q20 0 32.5 -12.5t12.5 -32.5v-635q0 -20 -12.5 -32.5t-32.5 -12.5h-35 q-20 0 -32.5 12t-12.5 33z" />
<glyph unicode="&#xa7;" horiz-adv-x="1132" d="M94 676q0 147 160 266q-53 63 -53 180q0 84 43 160t128 124t203 48q131 0 220.5 -42t133.5 -105.5t48 -126.5v-4q0 -16 -12.5 -26.5t-30.5 -10.5h-37q-18 0 -29.5 9t-19.5 32q-25 70 -83 112.5t-190 42.5q-123 0 -186 -59t-63 -154q0 -63 23.5 -100t80.5 -62.5t178 -62.5 q160 -49 252 -101.5t135 -124t43 -179.5q0 -147 -159 -267q53 -63 53 -180q0 -84 -43 -159.5t-128 -124t-204 -48.5q-131 0 -220 42t-133 105.5t-48 127.5v4q0 16 12 26.5t31 10.5h37q18 0 29 -9.5t20 -31.5q25 -70 83 -113t189 -43q123 0 186.5 59.5t63.5 153.5 q0 63 -23.5 100t-81 62.5t-178.5 62.5q-160 49 -252 101.5t-135 124t-43 180.5zM219 674q0 -66 27.5 -114t104.5 -91t224 -86q131 -39 207 -82q68 45 99.5 88t31.5 105q0 66 -27.5 113.5t-104 90.5t-224.5 86q-131 39 -207 82q-68 -45 -99.5 -88t-31.5 -104z" />
<glyph unicode="&#xa8;" horiz-adv-x="770" d="M143 1329v78q0 20 12.5 33.5t32.5 13.5h78q20 0 33.5 -13.5t13.5 -33.5v-78q0 -20 -13 -32.5t-34 -12.5h-78q-20 0 -32.5 12.5t-12.5 32.5zM457 1329v78q0 20 12 33.5t33 13.5h78q20 0 33.5 -13.5t13.5 -33.5v-78q0 -20 -13.5 -32.5t-33.5 -12.5h-78q-21 0 -33 12.5 t-12 32.5z" />
<glyph unicode="&#xa9;" horiz-adv-x="1708" d="M117 717q0 201 99 369.5t268 268t370 99.5t370 -99.5t268 -268t99 -369.5t-99 -370t-268 -268t-370 -99t-370 99t-268 268t-99 370zM240 717q0 -168 83 -311.5t224 -228.5t307 -85t307.5 85t224 228.5t82.5 311.5t-82.5 311t-224 228t-307.5 85t-307 -85t-224 -228 t-83 -311zM520 719l2 69q4 139 93.5 232.5t238.5 93.5q102 0 176 -33.5t111 -84t37 -101.5q0 -20 -12.5 -32.5t-32.5 -12.5h-35q-18 0 -28.5 10t-18.5 29q-20 51 -66.5 78.5t-130.5 27.5q-111 0 -157 -62.5t-50 -144.5l-2 -69l2 -70q4 -82 50 -144.5t157 -62.5q84 0 130 28 t67 79q8 18 18 28.5t29 10.5h35q20 0 32.5 -12.5t12.5 -32.5q0 -51 -37 -101.5t-111 -84t-176 -33.5q-149 0 -238.5 93t-93.5 232z" />
<glyph unicode="&#xaa;" horiz-adv-x="751" d="M119 1034q0 80 61.5 131.5t169.5 67.5l129 18q0 23 -19.5 48.5t-82.5 25.5q-35 0 -56.5 -7t-41.5 -20q-25 -14 -46 -14h-34q-45 0 -45 31q0 20 30.5 52t82.5 54.5t116 22.5q100 0 160.5 -61.5t60.5 -157.5v-291q0 -20 -12 -32.5t-33 -12.5h-35q-20 0 -32.5 12t-12.5 33 v14q-16 -29 -65 -49t-105 -20q-86 0 -138 45t-52 110zM246 1038q0 -23 23.5 -36t58.5 -13q78 0 114.5 44t36.5 112l-96 -15q-80 -12 -108.5 -34.5t-28.5 -57.5z" />
<glyph unicode="&#xab;" horiz-adv-x="1234" d="M96 657v33q4 41 35 72l385 373q29 25 49 24q18 0 29.5 -11t11.5 -30v-35q0 -23 -8 -38t-29 -35l-346 -336l346 -336q20 -20 28.5 -35.5t8.5 -38.5v-35q0 -18 -11 -29.5t-30 -11.5q-20 0 -49 25l-385 373q-31 31 -35 71zM606 657v33q4 41 35 72l385 373q29 25 49 24 q18 0 29.5 -11t11.5 -30v-35q0 -23 -8 -38t-29 -35l-346 -336l346 -336q20 -20 28.5 -35.5t8.5 -38.5v-35q0 -18 -11 -29.5t-30 -11.5q-20 0 -49 25l-385 373q-31 31 -35 71z" />
<glyph unicode="&#xac;" horiz-adv-x="1189" d="M156 643v29q0 20 12 32.5t33 12.5h788q20 0 32.5 -12.5t12.5 -32.5v-279q0 -20 -12 -32.5t-33 -12.5h-37q-20 0 -32.5 12.5t-12.5 32.5v205h-706q-20 0 -32.5 12.5t-12.5 32.5z" />
<glyph unicode="&#xad;" horiz-adv-x="512" />
<glyph unicode="&#xae;" horiz-adv-x="1708" d="M117 717q0 201 99 369.5t268 268t370 99.5t370 -99.5t268 -268t99 -369.5t-99 -370t-268 -268t-370 -99t-370 99t-268 268t-99 370zM240 717q0 -168 83 -311.5t224 -228.5t307 -85t307.5 85t224 228.5t82.5 311.5t-82.5 311t-224 228t-307.5 85t-307 -85t-224 -228 t-83 -311zM578 389v660q0 20 12 32.5t33 12.5h262q127 0 202.5 -56.5t75.5 -181.5q0 -80 -39 -135t-108 -80l141 -223q8 -12 8 -29q0 -18 -11 -31.5t-34 -13.5h-28q-37 0 -60 39l-147 235h-183v-229q0 -20 -12 -32.5t-33 -12.5h-34q-21 0 -33 12.5t-12 32.5zM702 737h179 q158 0 157 119q0 119 -157 119h-179v-238z" />
<glyph unicode="&#xaf;" horiz-adv-x="784" d="M143 1319v29q0 20 12.5 32.5t32.5 12.5h408q20 0 32.5 -12.5t12.5 -32.5v-29q0 -20 -12.5 -32.5t-32.5 -12.5h-408q-20 0 -32.5 12t-12.5 33z" />
<glyph unicode="&#xb0;" horiz-adv-x="774" d="M109 1186q0 115 80.5 191.5t197.5 76.5t198 -77t81 -191q0 -115 -81 -191.5t-198 -76.5t-197.5 76.5t-80.5 191.5zM231 1186q0 -70 43 -113t113 -43t113 43t43 113t-43 112.5t-113 42.5t-113 -43t-43 -112z" />
<glyph unicode="&#xb1;" horiz-adv-x="1138" d="M141 809v29q0 20 12.5 32.5t32.5 12.5h322v315q0 20 12 32.5t33 12.5h33q20 0 32.5 -12t12.5 -33v-315h321q20 0 32.5 -12.5t12.5 -32.5v-29q0 -20 -12 -32.5t-33 -12.5h-321v-324q0 -20 -12.5 -32.5t-32.5 -12.5h-33q-21 0 -33 12.5t-12 32.5v324h-322q-20 0 -32.5 12 t-12.5 33zM162 45v29q0 20 12 32.5t33 12.5h725q20 0 32.5 -12.5t12.5 -32.5v-29q0 -20 -12.5 -32.5t-32.5 -12.5h-725q-21 0 -33 12.5t-12 32.5z" />
<glyph unicode="&#xb2;" horiz-adv-x="686" d="M63 762v35q0 16 10.5 31.5t39.5 35.5l100 72q113 82 161 120t73.5 75.5t25.5 85.5q0 51 -39 82.5t-94 31.5q-63 0 -91 -22.5t-37 -42t-11 -23.5q-12 -23 -22.5 -30t-26.5 -7h-31q-37 0 -37 35q0 47 35 95t94 78t127 30q113 0 182.5 -67.5t69.5 -159.5q0 -74 -32 -130.5 t-96.5 -109.5t-197.5 -146h312q20 0 32.5 -12t12.5 -33v-24q0 -20 -12.5 -32.5t-32.5 -12.5h-469q-21 0 -33.5 12t-12.5 33z" />
<glyph unicode="&#xb3;" horiz-adv-x="688" d="M59 870v4q0 14 12.5 24.5t22.5 10.5h41q25 0 45 -28q23 -31 50.5 -45.5t103.5 -14.5q70 0 115 28t45 75q0 55 -38 78.5t-110 23.5h-82q-20 0 -32.5 12.5t-12.5 32.5v35q0 23 25 47l182 166h-291q-20 0 -32.5 12t-12.5 33v25q0 20 12.5 32.5t32.5 12.5h406 q20 0 32.5 -12.5t12.5 -32.5v-25q0 -25 -6.5 -42t-26.5 -38l-156 -143q111 -6 163 -65.5t52 -151.5q0 -102 -72.5 -159.5t-205.5 -57.5q-127 0 -199 47t-76 116z" />
<glyph unicode="&#xb4;" horiz-adv-x="636" d="M143 1251q0 16 11 27l141 170q18 23 32.5 30t43.5 7h84q39 0 39 -39q0 -14 -11 -25l-223 -182q-16 -12 -28.5 -16t-34.5 -4h-21q-33 -1 -33 32z" />
<glyph unicode="&#xb5;" horiz-adv-x="1200" d="M156 -365v1385q0 20 12 32.5t33 12.5h35q20 0 32.5 -12.5t12.5 -32.5v-571q0 -104 46 -184.5t120.5 -123.5t152.5 -43t152.5 43t121 123t46.5 185v571q0 20 12 32.5t33 12.5h34q20 0 32.5 -12.5t12.5 -32.5v-975q0 -20 -12 -32.5t-33 -12.5h-34q-20 0 -32.5 12.5 t-12.5 32.5v96q-59 -78 -134 -119.5t-186 -41.5t-185.5 41.5t-133.5 119.5v-506q0 -20 -12.5 -32.5t-32.5 -12.5h-35q-21 0 -33 12.5t-12 32.5z" />
<glyph unicode="&#xb6;" horiz-adv-x="1005" d="M66 1071q0 98 49 181t132 132.5t181 49.5h367q20 0 32.5 -12.5t12.5 -32.5v-1549q0 -20 -12.5 -32.5t-32.5 -12.5h-35q-20 0 -32.5 12.5t-12.5 32.5v1475h-162v-1475q0 -20 -12.5 -32.5t-32.5 -12.5h-35q-20 0 -32.5 12.5t-12.5 32.5v869q-98 0 -181 49t-132 132t-49 181 z" />
<glyph unicode="&#xb7;" horiz-adv-x="675" d="M133 614q0 84 60.5 144.5t144.5 60.5t144.5 -60.5t60.5 -144.5t-60.5 -144t-144.5 -60t-144.5 60t-60.5 144z" />
<glyph unicode="&#xb8;" horiz-adv-x="655" d="M145 -362q0 10 7 16l28 27q8 8 19 8q8 0 28.5 -13.5t40 -22.5t51.5 -9q37 0 63 22.5t26 59.5q0 35 -26 56t-63 21q-29 0 -58.5 -10t-37.5 -10q-16 0 -26 12l-33 35q-6 6 -6 16t7 24.5t9 20.5l72 164h119l-86 -174q27 16 77 17q68 0 112 -47.5t44 -120.5q0 -78 -49 -129.5 t-139 -51.5q-50 0 -90.5 14.5t-64.5 35t-24 39.5z" />
<glyph unicode="&#xb9;" horiz-adv-x="473" d="M37 1239q0 20 18 35l197 145q20 14 47 15h29q20 0 32.5 -12.5t12.5 -32.5v-627q0 -20 -12.5 -32.5t-32.5 -12.5h-29q-20 0 -32.5 12t-12.5 33v514l-129 -96q-10 -8 -27 -9q-20 0 -37 19l-14 20q-10 14 -10 29z" />
<glyph unicode="&#xba;" horiz-adv-x="739" d="M123 1161l2 56q6 111 74.5 169t171.5 58q102 0 170.5 -58.5t74.5 -168.5q2 -10 2 -56q0 -45 -2 -55q-6 -113 -71.5 -170t-173.5 -57q-109 0 -174.5 57t-71.5 170zM248 1161l2 -45q6 -119 121 -119t121 119q2 10 2 45t-2 45q-4 55 -35 87t-86 32t-86 -31.5t-35 -87.5z" />
<glyph unicode="&#xbb;" horiz-adv-x="1234" d="M119 229v35q0 23 8 38t29 36l346 336l-346 336q-20 20 -28.5 35.5t-8.5 37.5v35q0 18 11 29.5t30 11.5q20 0 49 -24l385 -373q31 -31 35 -72v-33q-4 -41 -35 -71l-385 -373q-29 -25 -49 -25q-19 0 -30 11.5t-11 29.5zM629 229v35q0 23 8 38t29 36l346 336l-346 336 q-20 20 -28.5 35.5t-8.5 37.5v35q0 18 11 29.5t30 11.5q20 0 49 -24l385 -373q31 -31 35 -72v-33q-4 -41 -35 -71l-385 -373q-29 -25 -49 -25q-19 0 -30 11.5t-11 29.5z" />
<glyph unicode="&#xbc;" horiz-adv-x="1468" d="M37 1239q0 20 18 35l197 145q20 14 47 15h29q20 0 32.5 -12.5t12.5 -32.5v-627q0 -20 -12.5 -32.5t-32.5 -12.5h-29q-20 0 -32.5 12t-12.5 33v514l-129 -96q-10 -8 -27 -9q-20 0 -37 19l-14 20q-10 14 -10 29zM55 41q0 12 8 22l1010 1332q16 23 29.5 31t38.5 8h34 q18 0 29.5 -11.5t11.5 -29.5q0 -12 -8 -23l-1009 -1331q-16 -23 -29.5 -31t-38.5 -8h-35q-18 0 -29.5 11.5t-11.5 29.5zM764 194v27q0 29 25 62l280 393q27 37 62 37h53q20 0 32.5 -12.5t12.5 -32.5v-404h72q20 0 32.5 -12t12.5 -33v-25q0 -20 -12.5 -32.5t-32.5 -12.5h-72 v-108q0 -20 -12.5 -32.5t-32.5 -12.5h-29q-20 0 -32.5 12t-12.5 33v108h-301q-20 0 -32.5 12.5t-12.5 32.5zM918 264h192v277z" />
<glyph unicode="&#xbd;" horiz-adv-x="1486" d="M37 1239q0 20 18 35l197 145q20 14 47 15h29q20 0 32.5 -12.5t12.5 -32.5v-627q0 -20 -12.5 -32.5t-32.5 -12.5h-29q-20 0 -32.5 12t-12.5 33v514l-129 -96q-10 -8 -27 -9q-20 0 -37 19l-14 20q-10 14 -10 29zM55 41q0 12 8 22l1010 1332q16 23 29.5 31t38.5 8h34 q18 0 29.5 -11.5t11.5 -29.5q0 -12 -8 -23l-1009 -1331q-16 -23 -29.5 -31t-38.5 -8h-35q-18 0 -29.5 11.5t-11.5 29.5zM786 45v35q0 16 10.5 31.5t39.5 35.5l100 72q113 82 161 120t73.5 75.5t25.5 85.5q0 51 -39 82.5t-94 31.5q-63 0 -91 -22.5t-37 -42t-11 -23.5 q-12 -23 -22.5 -30t-26.5 -7h-31q-37 0 -37 35q0 47 35 95t94 78t127 30q113 0 182.5 -67.5t69.5 -159.5q0 -74 -32 -130.5t-96.5 -109.5t-197.5 -145h312q20 0 32.5 -12.5t12.5 -33.5v-24q0 -20 -12.5 -32.5t-32.5 -12.5h-469q-21 0 -33.5 12t-12.5 33z" />
<glyph unicode="&#xbe;" horiz-adv-x="1652" d="M59 870v4q0 14 12.5 24.5t22.5 10.5h41q25 0 45 -28q23 -31 50.5 -45.5t103.5 -14.5q70 0 115 28t45 75q0 55 -38 78.5t-110 23.5h-82q-20 0 -32.5 12.5t-12.5 32.5v35q0 23 25 47l182 166h-291q-20 0 -32.5 12t-12.5 33v25q0 20 12.5 32.5t32.5 12.5h406 q20 0 32.5 -12.5t12.5 -32.5v-25q0 -25 -6.5 -42t-26.5 -38l-156 -143q111 -6 163 -65.5t52 -151.5q0 -102 -72.5 -159.5t-205.5 -57.5q-127 0 -199 47t-76 116zM270 41q0 12 8 22l1010 1332q16 23 29.5 31t38.5 8h34q18 0 29.5 -11.5t11.5 -29.5q0 -12 -8 -23l-1009 -1331 q-16 -23 -29.5 -31t-38.5 -8h-35q-18 0 -29.5 11.5t-11.5 29.5zM983 194v27q0 29 25 62l280 393q27 37 62 37h53q20 0 32.5 -12.5t12.5 -32.5v-404h72q20 0 32.5 -12t12.5 -33v-25q0 -20 -12.5 -32.5t-32.5 -12.5h-72v-108q0 -20 -12.5 -32.5t-32.5 -12.5h-29 q-20 0 -32.5 12t-12.5 33v108h-301q-20 0 -32.5 12.5t-12.5 32.5zM1137 264h192v277z" />
<glyph unicode="&#xbf;" horiz-adv-x="1015" d="M74 -33q0 106 49 184t145 179q86 90 128 153.5t42 145.5v98q0 20 12.5 32.5t32.5 12.5h35q21 0 33 -12t12 -33v-98q0 -84 -28.5 -151.5t-69.5 -118t-109 -119.5q-84 -88 -121.5 -144.5t-37.5 -128.5q0 -109 92 -173t213 -64q129 0 215 67.5t110 216.5q8 45 50 45h32 q18 0 30.5 -11t12.5 -30q-2 -113 -61.5 -206t-160.5 -147t-228 -54q-137 0 -234.5 49t-145.5 131t-48 176zM418 942v78q0 20 13 32.5t34 12.5h78q20 0 32.5 -12.5t12.5 -32.5v-78q0 -20 -12.5 -33.5t-32.5 -13.5h-78q-20 0 -33.5 13.5t-13.5 33.5z" />
<glyph unicode="&#xc0;" horiz-adv-x="1331" d="M49 41l4 22l518 1330q16 41 60 41h69q43 0 60 -41l518 -1330l4 -22q0 -16 -12.5 -28.5t-28.5 -12.5h-41q-18 0 -29.5 10t-15.5 21l-127 327h-725l-127 -327q-4 -10 -15 -20.5t-30 -10.5h-41q-16 0 -28.5 12.5t-12.5 28.5zM352 481h627l-313 807zM383 1763q0 39 39 39h94 q29 0 43 -7t33 -30l141 -170q10 -10 10 -26q0 -33 -33 -33h-30q-23 0 -35 4t-29 16l-223 183q-10 10 -10 24z" />
<glyph unicode="&#xc1;" horiz-adv-x="1331" d="M49 41l4 22l518 1330q16 41 60 41h69q43 0 60 -41l518 -1330l4 -22q0 -16 -12.5 -28.5t-28.5 -12.5h-41q-18 0 -29.5 10t-15.5 21l-127 327h-725l-127 -327q-4 -10 -15 -20.5t-30 -10.5h-41q-16 0 -28.5 12.5t-12.5 28.5zM352 481h627l-313 807zM609 1569q0 16 10 26 l141 170q18 23 32.5 30t43.5 7h94q39 0 39 -39q0 -14 -10 -24l-223 -183q-16 -12 -28.5 -16t-35.5 -4h-30q-33 0 -33 33z" />
<glyph unicode="&#xc2;" horiz-adv-x="1331" d="M49 41l4 22l518 1330q16 41 60 41h69q43 0 60 -41l518 -1330l4 -22q0 -16 -12.5 -28.5t-28.5 -12.5h-41q-18 0 -29.5 10t-15.5 21l-127 327h-725l-127 -327q-4 -10 -15 -20.5t-30 -10.5h-41q-16 0 -28.5 12.5t-12.5 28.5zM352 481h627l-313 807zM387 1559q0 16 24 40 l178 175q18 18 32.5 23t33.5 5h20q20 0 33.5 -5t32.5 -23l178 -175q25 -25 25 -40q0 -23 -29 -23h-35q-14 0 -28.5 4t-22.5 10l-164 123l-164 -123q-8 -6 -22.5 -10t-28.5 -4h-35q-28 0 -28 23z" />
<glyph unicode="&#xc3;" horiz-adv-x="1331" d="M49 41l4 22l518 1330q16 41 60 41h69q43 0 60 -41l518 -1330l4 -22q0 -16 -12.5 -28.5t-28.5 -12.5h-41q-18 0 -29.5 10t-15.5 21l-127 327h-725l-127 -327q-4 -10 -15 -20.5t-30 -10.5h-41q-16 0 -28.5 12.5t-12.5 28.5zM352 481h627l-313 807zM410 1569q0 59 45 109.5 t106 50.5q35 0 62.5 -10.5t62.5 -30.5q4 -2 28.5 -15.5t47.5 -13.5q16 0 25.5 7t19.5 24q8 16 16.5 23t22.5 7h41q14 0 23.5 -10t9.5 -22q0 -59 -47.5 -110.5t-106.5 -51.5q-35 0 -59.5 9t-65.5 32q-49 29 -74 28q-16 0 -25 -7t-20 -23q-16 -29 -39 -29h-41q-14 0 -23 10 t-9 23z" />
<glyph unicode="&#xc4;" horiz-adv-x="1331" d="M49 41l4 22l518 1330q16 41 60 41h69q43 0 60 -41l518 -1330l4 -22q0 -16 -12.5 -28.5t-28.5 -12.5h-41q-18 0 -29.5 10t-15.5 21l-127 327h-725l-127 -327q-4 -10 -15 -20.5t-30 -10.5h-41q-16 0 -28.5 12.5t-12.5 28.5zM352 481h627l-313 807zM393 1581v78 q0 20 12 33.5t33 13.5h78q20 0 33.5 -13.5t13.5 -33.5v-78q0 -20 -13.5 -32.5t-33.5 -12.5h-78q-21 0 -33 12.5t-12 32.5zM768 1581v78q0 20 12 33.5t33 13.5h78q20 0 33.5 -13.5t13.5 -33.5v-78q0 -20 -13.5 -32.5t-33.5 -12.5h-78q-21 0 -33 12.5t-12 32.5z" />
<glyph unicode="&#xc5;" horiz-adv-x="1331" d="M49 41l4 22l518 1330q16 41 60 41h69q43 0 60 -41l518 -1330l4 -22q0 -16 -12.5 -28.5t-28.5 -12.5h-41q-18 0 -29.5 10t-15.5 21l-127 327h-725l-127 -327q-4 -10 -15 -20.5t-30 -10.5h-41q-16 0 -28.5 12.5t-12.5 28.5zM352 481h627l-313 807zM502 1669q0 68 47 111 t117 43t117 -43t47 -111t-47.5 -110.5t-116.5 -42.5q-70 0 -117 43t-47 110zM604 1669q0 -27 17.5 -44t44.5 -17q26 0 43.5 17t17.5 44t-17.5 44.5t-43.5 17.5q-27 0 -44.5 -17.5t-17.5 -44.5z" />
<glyph unicode="&#xc6;" horiz-adv-x="1884" d="M10 41q0 12 8 29l750 1325q20 39 53 39h887q23 0 35 -12.5t12 -35.5v-30q0 -20 -13 -32.5t-34 -12.5h-715v-523h670q23 0 35 -12t12 -35v-30q0 -20 -13.5 -32.5t-33.5 -12.5h-670v-543h731q23 0 35.5 -12.5t12.5 -34.5v-31q0 -20 -13.5 -32.5t-34.5 -12.5h-815 q-20 0 -32.5 12.5t-12.5 32.5v313h-536l-185 -327q-16 -31 -45 -31h-47q-16 0 -28.5 12.5t-12.5 28.5zM397 481h467v815h-2z" />
<glyph unicode="&#xc7;" horiz-adv-x="1333" d="M133 715q0 127 2 184q10 254 143.5 404.5t399.5 150.5q182 0 303 -66.5t179.5 -168t64.5 -207.5v-4q0 -16 -12.5 -26.5t-30.5 -10.5h-41q-37 0 -45 43q-39 174 -141.5 245.5t-276.5 71.5q-193 0 -299.5 -108.5t-114.5 -333.5q-2 -55 -2 -170t2 -174q8 -225 114.5 -334 t299.5 -109q174 0 276.5 72t141.5 246q8 43 45 43h41q18 0 31.5 -11.5t11.5 -29.5q-6 -106 -64.5 -207.5t-179.5 -168t-303 -66.5l-47 -99q27 16 78 17q68 0 111.5 -47.5t43.5 -120.5q0 -78 -49 -129.5t-139 -51.5q-49 0 -90 14.5t-64.5 35t-23.5 39.5q0 10 6 16l28 27 q8 8 19 8q8 0 28.5 -13.5t40 -22.5t52.5 -9q37 0 62.5 22.5t25.5 59.5q0 35 -25.5 56t-62.5 21q-29 0 -58.5 -10t-38.5 -10q-16 0 -26 12l-33 35q-6 6 -6 16t7 24.5t9 20.5l41 97q-213 31 -318.5 175t-113.5 372q-2 55 -2 180z" />
<glyph unicode="&#xc8;" horiz-adv-x="1212" d="M193 45v1341q0 20 12 34t33 14h798q23 0 35 -12.5t12 -35.5v-30q0 -20 -13 -32.5t-34 -12.5h-714v-523h669q23 0 35 -12t12 -35v-30q0 -20 -13 -32.5t-34 -12.5h-669v-543h731q23 0 35 -12.5t12 -34.5v-31q0 -20 -13.5 -32.5t-33.5 -12.5h-815q-21 0 -33 12.5t-12 32.5z M324 1763q0 39 39 39h94q29 0 43 -7t33 -30l141 -170q10 -10 10 -26q0 -33 -33 -33h-30q-23 0 -35 4t-29 16l-223 183q-10 10 -10 24z" />
<glyph unicode="&#xc9;" horiz-adv-x="1212" d="M193 45v1341q0 20 12 34t33 14h798q23 0 35 -12.5t12 -35.5v-30q0 -20 -13 -32.5t-34 -12.5h-714v-523h669q23 0 35 -12t12 -35v-30q0 -20 -13 -32.5t-34 -12.5h-669v-543h731q23 0 35 -12.5t12 -34.5v-31q0 -20 -13.5 -32.5t-33.5 -12.5h-815q-21 0 -33 12.5t-12 32.5z M549 1569q0 16 10 26l141 170q18 23 32.5 30t43.5 7h94q39 0 39 -39q0 -14 -10 -24l-223 -183q-16 -12 -28.5 -16t-35.5 -4h-30q-33 0 -33 33z" />
<glyph unicode="&#xca;" horiz-adv-x="1212" d="M193 45v1341q0 20 12 34t33 14h798q23 0 35 -12.5t12 -35.5v-30q0 -20 -13 -32.5t-34 -12.5h-714v-523h669q23 0 35 -12t12 -35v-30q0 -20 -13 -32.5t-34 -12.5h-669v-543h731q23 0 35 -12.5t12 -34.5v-31q0 -20 -13.5 -32.5t-33.5 -12.5h-815q-21 0 -33 12.5t-12 32.5z M328 1559q0 16 24 40l178 175q18 18 32.5 23t33.5 5h20q20 0 33.5 -5t32.5 -23l178 -175q25 -25 25 -40q0 -23 -29 -23h-35q-14 0 -28.5 4t-22.5 10l-164 123l-164 -123q-8 -6 -22.5 -10t-28.5 -4h-35q-28 0 -28 23z" />
<glyph unicode="&#xcb;" horiz-adv-x="1212" d="M193 45v1341q0 20 12 34t33 14h798q23 0 35 -12.5t12 -35.5v-30q0 -20 -13 -32.5t-34 -12.5h-714v-523h669q23 0 35 -12t12 -35v-30q0 -20 -13 -32.5t-34 -12.5h-669v-543h731q23 0 35 -12.5t12 -34.5v-31q0 -20 -13.5 -32.5t-33.5 -12.5h-815q-21 0 -33 12.5t-12 32.5z M334 1581v78q0 20 12 33.5t33 13.5h78q20 0 33.5 -13.5t13.5 -33.5v-78q0 -20 -13.5 -32.5t-33.5 -12.5h-78q-21 0 -33 12.5t-12 32.5zM709 1581v78q0 20 12 33.5t33 13.5h78q20 0 33.5 -13.5t13.5 -33.5v-78q0 -20 -13.5 -32.5t-33.5 -12.5h-78q-21 0 -33 12.5t-12 32.5z " />
<glyph unicode="&#xcc;" horiz-adv-x="514" d="M-24 1763q0 39 39 39h94q29 0 43 -7t33 -30l141 -170q10 -10 10 -26q0 -33 -33 -33h-30q-23 0 -35 4t-29 16l-223 183q-10 10 -10 24zM193 45v1344q0 20 12 32.5t33 12.5h38q20 0 33 -12.5t13 -32.5v-1344q0 -20 -12.5 -32.5t-33.5 -12.5h-38q-21 0 -33 12.5t-12 32.5z " />
<glyph unicode="&#xcd;" horiz-adv-x="514" d="M193 45v1344q0 20 12 32.5t33 12.5h38q20 0 33 -12.5t13 -32.5v-1344q0 -20 -12.5 -32.5t-33.5 -12.5h-38q-21 0 -33 12.5t-12 32.5zM201 1569q0 16 10 26l141 170q18 23 32.5 30t43.5 7h94q39 0 39 -39q0 -14 -10 -24l-223 -183q-16 -12 -28.5 -16t-35.5 -4h-30 q-33 0 -33 33z" />
<glyph unicode="&#xce;" horiz-adv-x="514" d="M-20 1559q0 16 24 40l178 175q18 18 32.5 23t33.5 5h20q20 0 33.5 -5t32.5 -23l178 -175q25 -25 25 -40q0 -23 -29 -23h-35q-14 0 -28.5 4t-22.5 10l-164 123l-164 -123q-8 -6 -22.5 -10t-28.5 -4h-35q-28 0 -28 23zM193 45v1344q0 20 12 32.5t33 12.5h38q20 0 33 -12.5 t13 -32.5v-1344q0 -20 -12.5 -32.5t-33.5 -12.5h-38q-21 0 -33 12.5t-12 32.5z" />
<glyph unicode="&#xcf;" horiz-adv-x="514" d="M-14 1581v78q0 20 12 33.5t33 13.5h78q20 0 33.5 -13.5t13.5 -33.5v-78q0 -20 -13.5 -32.5t-33.5 -12.5h-78q-21 0 -33 12.5t-12 32.5zM193 45v1344q0 20 12 32.5t33 12.5h38q20 0 33 -12.5t13 -32.5v-1344q0 -20 -12.5 -32.5t-33.5 -12.5h-38q-21 0 -33 12.5t-12 32.5z M361 1581v78q0 20 12 33.5t33 13.5h78q20 0 33.5 -13.5t13.5 -33.5v-78q0 -20 -13.5 -32.5t-33.5 -12.5h-78q-21 0 -33 12.5t-12 32.5z" />
<glyph unicode="&#xd0;" horiz-adv-x="1398" d="M31 705v32q0 20 12 32.5t33 12.5h129v604q0 20 12 34t33 14h436q213 0 337 -62.5t176 -183.5t56 -307q2 -61 2 -162q0 -102 -2 -164q-4 -197 -56 -316.5t-173 -179t-330 -59.5h-446q-21 0 -33 12.5t-12 32.5v614h-129q-20 0 -32.5 12.5t-12.5 33.5zM334 123h352 q164 0 258 44t136 139t46 259q2 61 2 154q0 90 -2 151q-4 229 -107.5 335t-342.5 106h-342v-529h307q20 0 32.5 -12t12.5 -33v-32q0 -20 -12 -33t-33 -13h-307v-536z" />
<glyph unicode="&#xd1;" horiz-adv-x="1400" d="M193 45v1341q0 20 12 34t33 14h43q27 0 43 -25l755 -1155v1132q0 20 12.5 34t32.5 14h37q23 0 35 -12.5t12 -35.5v-1339q0 -20 -12 -33.5t-33 -13.5h-45q-27 0 -43 25l-753 1151v-1131q0 -20 -13.5 -32.5t-34.5 -12.5h-36q-21 0 -33 12.5t-12 32.5zM445 1569 q0 59 45 109.5t106 50.5q35 0 62.5 -10.5t62.5 -30.5q4 -2 28.5 -15.5t47.5 -13.5q16 0 25.5 7t19.5 24q8 16 16.5 23t22.5 7h41q14 0 23.5 -10t9.5 -22q0 -59 -47.5 -110.5t-106.5 -51.5q-35 0 -59.5 9t-65.5 32q-49 29 -74 28q-16 0 -25 -7t-20 -23q-16 -29 -39 -29h-41 q-14 0 -23 10t-9 23z" />
<glyph unicode="&#xd2;" horiz-adv-x="1355" d="M135 717q0 111 2 172q8 279 151.5 422t389.5 143t389 -143.5t152 -421.5q4 -123 4 -172t-4 -172q-14 -565 -541 -565t-541 565q-2 61 -2 172zM264 717q0 -100 2 -162q8 -229 118 -341t294 -112t293.5 112t118.5 341q4 123 4 162t-4 162q-8 229 -119 340.5t-293 111.5 t-293 -111.5t-119 -340.5q-2 -61 -2 -162zM396 1763q0 39 39 39h94q29 0 43 -7t33 -30l141 -170q10 -10 10 -26q0 -33 -33 -33h-30q-23 0 -35 4t-29 16l-223 183q-10 10 -10 24z" />
<glyph unicode="&#xd3;" horiz-adv-x="1355" d="M135 717q0 111 2 172q8 279 151.5 422t389.5 143t389 -143.5t152 -421.5q4 -123 4 -172t-4 -172q-14 -565 -541 -565t-541 565q-2 61 -2 172zM264 717q0 -100 2 -162q8 -229 118 -341t294 -112t293.5 112t118.5 341q4 123 4 162t-4 162q-8 229 -119 340.5t-293 111.5 t-293 -111.5t-119 -340.5q-2 -61 -2 -162zM621 1569q0 16 10 26l141 170q18 23 32.5 30t43.5 7h94q39 0 39 -39q0 -14 -10 -24l-223 -183q-16 -12 -28.5 -16t-35.5 -4h-30q-33 0 -33 33z" />
<glyph unicode="&#xd4;" horiz-adv-x="1355" d="M135 717q0 111 2 172q8 279 151.5 422t389.5 143t389 -143.5t152 -421.5q4 -123 4 -172t-4 -172q-14 -565 -541 -565t-541 565q-2 61 -2 172zM264 717q0 -100 2 -162q8 -229 118 -341t294 -112t293.5 112t118.5 341q4 123 4 162t-4 162q-8 229 -119 340.5t-293 111.5 t-293 -111.5t-119 -340.5q-2 -61 -2 -162zM400 1559q0 16 24 40l178 175q18 18 32.5 23t33.5 5h20q20 0 33.5 -5t32.5 -23l178 -175q25 -25 25 -40q0 -23 -29 -23h-35q-14 0 -28.5 4t-22.5 10l-164 123l-164 -123q-8 -6 -22.5 -10t-28.5 -4h-35q-28 0 -28 23z" />
<glyph unicode="&#xd5;" horiz-adv-x="1355" d="M135 717q0 111 2 172q8 279 151.5 422t389.5 143t389 -143.5t152 -421.5q4 -123 4 -172t-4 -172q-14 -565 -541 -565t-541 565q-2 61 -2 172zM264 717q0 -100 2 -162q8 -229 118 -341t294 -112t293.5 112t118.5 341q4 123 4 162t-4 162q-8 229 -119 340.5t-293 111.5 t-293 -111.5t-119 -340.5q-2 -61 -2 -162zM422 1569q0 59 45 109.5t106 50.5q35 0 62.5 -10.5t62.5 -30.5q4 -2 28.5 -15.5t47.5 -13.5q16 0 25.5 7t19.5 24q8 16 16.5 23t22.5 7h41q14 0 23.5 -10t9.5 -22q0 -59 -47.5 -110.5t-106.5 -51.5q-35 0 -59.5 9t-65.5 32 q-49 29 -74 28q-16 0 -25 -7t-20 -23q-16 -29 -39 -29h-41q-14 0 -23 10t-9 23z" />
<glyph unicode="&#xd6;" horiz-adv-x="1355" d="M135 717q0 111 2 172q8 279 151.5 422t389.5 143t389 -143.5t152 -421.5q4 -123 4 -172t-4 -172q-14 -565 -541 -565t-541 565q-2 61 -2 172zM264 717q0 -100 2 -162q8 -229 118 -341t294 -112t293.5 112t118.5 341q4 123 4 162t-4 162q-8 229 -119 340.5t-293 111.5 t-293 -111.5t-119 -340.5q-2 -61 -2 -162zM406 1581v78q0 20 12 33.5t33 13.5h78q20 0 33.5 -13.5t13.5 -33.5v-78q0 -20 -13.5 -32.5t-33.5 -12.5h-78q-21 0 -33 12.5t-12 32.5zM781 1581v78q0 20 12 33.5t33 13.5h78q20 0 33.5 -13.5t13.5 -33.5v-78q0 -20 -13.5 -32.5 t-33.5 -12.5h-78q-21 0 -33 12.5t-12 32.5z" />
<glyph unicode="&#xd7;" horiz-adv-x="1107" d="M137 336q0 16 15 31l313 313l-313 315q-14 18 -15 33q0 16 15 31l24 24q14 14 33 15q18 0 31 -15l313 -315l315 315q14 14 33 15q18 0 31 -15l24 -24q14 -12 15 -31q0 -18 -15 -33l-315 -315l315 -313q14 -12 15 -31q0 -18 -15 -33l-24 -24q-14 -14 -31 -15q-14 0 -33 15 l-315 313l-313 -313q-14 -14 -31 -15q-14 0 -33 15l-24 24q-14 18 -15 33z" />
<glyph unicode="&#xd8;" horiz-adv-x="1396" d="M23 457v39q0 23 9 32t36 19l90 35q-2 41 -2 116q0 55 4 191q8 279 151.5 422t388.5 143q219 0 358.5 -114.5t172.5 -340.5l76 29q14 6 26 6q18 0 28.5 -9t10.5 -28v-39q0 -23 -9 -31.5t-36 -19.5l-86 -33q4 -115 4 -163q0 -47 -4 -166q-14 -565 -541 -565 q-483 0 -534 475l-78 -29q-16 -6 -27 -6q-18 0 -28 9t-10 28zM285 633l821 317q-25 195 -131.5 288t-274.5 93q-182 0 -292.5 -111.5t-118.5 -340.5q-4 -139 -4 -183v-63zM291 504q18 -205 126.5 -303.5t282.5 -98.5q185 0 294.5 112t117.5 341q2 74 2 193v77z" />
<glyph unicode="&#xd9;" horiz-adv-x="1415" d="M180 555v831q0 20 12.5 34t32.5 14h37q23 0 35 -12.5t12 -35.5v-837q0 -225 104.5 -336t295.5 -111q188 0 292.5 111t104.5 336v837q0 23 13.5 35.5t33.5 12.5h37q20 0 32.5 -13.5t12.5 -34.5v-831q0 -293 -135 -434t-391 -141t-392.5 142t-136.5 433zM426 1763 q0 39 39 39h94q29 0 43 -7t33 -30l141 -170q10 -10 10 -26q0 -33 -33 -33h-30q-23 0 -35 4t-29 16l-223 183q-10 10 -10 24z" />
<glyph unicode="&#xda;" horiz-adv-x="1415" d="M180 555v831q0 20 12.5 34t32.5 14h37q23 0 35 -12.5t12 -35.5v-837q0 -225 104.5 -336t295.5 -111q188 0 292.5 111t104.5 336v837q0 23 13.5 35.5t33.5 12.5h37q20 0 32.5 -13.5t12.5 -34.5v-831q0 -293 -135 -434t-391 -141t-392.5 142t-136.5 433zM652 1569 q0 16 10 26l141 170q18 23 32.5 30t43.5 7h94q39 0 39 -39q0 -14 -10 -24l-223 -183q-16 -12 -28.5 -16t-35.5 -4h-30q-33 0 -33 33z" />
<glyph unicode="&#xdb;" horiz-adv-x="1415" d="M180 555v831q0 20 12.5 34t32.5 14h37q23 0 35 -12.5t12 -35.5v-837q0 -225 104.5 -336t295.5 -111q188 0 292.5 111t104.5 336v837q0 23 13.5 35.5t33.5 12.5h37q20 0 32.5 -13.5t12.5 -34.5v-831q0 -293 -135 -434t-391 -141t-392.5 142t-136.5 433zM430 1559 q0 16 24 40l178 175q18 18 32.5 23t33.5 5h20q20 0 33.5 -5t32.5 -23l178 -175q25 -25 25 -40q0 -23 -29 -23h-35q-14 0 -28.5 4t-22.5 10l-164 123l-164 -123q-8 -6 -22.5 -10t-28.5 -4h-35q-28 0 -28 23z" />
<glyph unicode="&#xdc;" horiz-adv-x="1415" d="M180 555v831q0 20 12.5 34t32.5 14h37q23 0 35 -12.5t12 -35.5v-837q0 -225 104.5 -336t295.5 -111q188 0 292.5 111t104.5 336v837q0 23 13.5 35.5t33.5 12.5h37q20 0 32.5 -13.5t12.5 -34.5v-831q0 -293 -135 -434t-391 -141t-392.5 142t-136.5 433zM436 1581v78 q0 20 12 33.5t33 13.5h78q20 0 33.5 -13.5t13.5 -33.5v-78q0 -20 -13.5 -32.5t-33.5 -12.5h-78q-21 0 -33 12.5t-12 32.5zM811 1581v78q0 20 12 33.5t33 13.5h78q20 0 33.5 -13.5t13.5 -33.5v-78q0 -20 -13.5 -32.5t-33.5 -12.5h-78q-21 0 -33 12.5t-12 32.5z" />
<glyph unicode="&#xdd;" horiz-adv-x="1294" d="M74 1393q0 16 12 28.5t29 12.5h41q29 0 47 -31l444 -723l445 723q18 31 47 31h41q16 0 28.5 -12.5t12.5 -28.5q0 -10 -9 -27l-499 -819v-502q0 -20 -13.5 -32.5t-33.5 -12.5h-39q-21 0 -33 12.5t-12 32.5v502l-500 819q-8 16 -8 27zM590 1569q0 16 10 26l141 170 q18 23 32.5 30t43.5 7h94q39 0 39 -39q0 -14 -10 -24l-223 -183q-16 -12 -28.5 -16t-35.5 -4h-30q-33 0 -33 33z" />
<glyph unicode="&#xde;" horiz-adv-x="1296" d="M193 45v1344q0 20 12 32.5t33 12.5h38q20 0 33 -12.5t13 -32.5v-248h413q219 0 345 -109.5t126 -314.5t-126 -314.5t-345 -109.5h-413v-248q0 -20 -13.5 -32.5t-34.5 -12.5h-36q-21 0 -33 12.5t-12 32.5zM322 416h403q176 0 264 76.5t88 224.5q0 147 -88 224t-264 77 h-403v-602z" />
<glyph unicode="&#xdf;" horiz-adv-x="1163" d="M168 45v983q0 184 102.5 305t311.5 121q139 0 233 -54t138 -139t44 -180q0 -121 -55 -198.5t-129 -110.5q244 -78 244 -358q0 -98 -46 -193.5t-146.5 -158t-250.5 -62.5h-153q-20 0 -32.5 12.5t-12.5 32.5v29q0 20 12 32.5t33 12.5h133q162 0 250 83t88 212 q0 131 -88 214t-250 83h-133q-20 0 -32.5 12t-12.5 33v28q0 20 12 32.5t33 12.5h112q299 2 299 252q0 111 -80.5 182.5t-209.5 71.5q-135 0 -212 -80.5t-77 -236.5v-973q0 -20 -12.5 -32.5t-32.5 -12.5h-35q-20 0 -32.5 12.5t-12.5 32.5z" />
<glyph unicode="&#xe0;" d="M86 285q0 135 109.5 221t296.5 110l323 46v71q0 113 -68.5 173.5t-209.5 60.5q-104 0 -171 -41t-85 -99q-8 -25 -19.5 -34t-30.5 -9h-28q-18 0 -31.5 13.5t-13.5 31.5q0 45 41 105.5t127 105.5t211 45q219 0 311 -104t92 -254v-682q0 -20 -12.5 -32.5t-32.5 -12.5h-35 q-20 0 -32.5 12.5t-12.5 32.5v96q-45 -68 -132 -114.5t-230 -46.5q-99 0 -183 40.5t-134 110.5t-50 154zM211 295q0 -94 79 -145.5t183 -51.5q150 0 246 98.5t96 282.5v70l-264 -37q-168 -23 -254 -78t-86 -139zM262 1446q0 39 39 39h84q29 0 43.5 -7.5t32.5 -29.5l141 -170 q10 -10 11 -27q0 -33 -33 -32h-21q-22 0 -34.5 4t-28.5 16l-223 182q-10 10 -11 25z" />
<glyph unicode="&#xe1;" d="M86 285q0 135 109.5 221t296.5 110l323 46v71q0 113 -68.5 173.5t-209.5 60.5q-104 0 -171 -41t-85 -99q-8 -25 -19.5 -34t-30.5 -9h-28q-18 0 -31.5 13.5t-13.5 31.5q0 45 41 105.5t127 105.5t211 45q219 0 311 -104t92 -254v-682q0 -20 -12.5 -32.5t-32.5 -12.5h-35 q-20 0 -32.5 12.5t-12.5 32.5v96q-45 -68 -132 -114.5t-230 -46.5q-99 0 -183 40.5t-134 110.5t-50 154zM211 295q0 -94 79 -145.5t183 -51.5q150 0 246 98.5t96 282.5v70l-264 -37q-168 -23 -254 -78t-86 -139zM436 1251q0 16 11 27l141 170q18 23 32.5 30t43.5 7h84 q39 0 39 -39q0 -14 -11 -25l-223 -182q-16 -12 -28.5 -16t-34.5 -4h-21q-33 -1 -33 32z" />
<glyph unicode="&#xe2;" d="M86 285q0 135 109.5 221t296.5 110l323 46v71q0 113 -68.5 173.5t-209.5 60.5q-104 0 -171 -41t-85 -99q-8 -25 -19.5 -34t-30.5 -9h-28q-18 0 -31.5 13.5t-13.5 31.5q0 45 41 105.5t127 105.5t211 45q219 0 311 -104t92 -254v-682q0 -20 -12.5 -32.5t-32.5 -12.5h-35 q-20 0 -32.5 12.5t-12.5 32.5v96q-45 -68 -132 -114.5t-230 -46.5q-99 0 -183 40.5t-134 110.5t-50 154zM211 295q0 -94 79 -145.5t183 -51.5q150 0 246 98.5t96 282.5v70l-264 -37q-168 -23 -254 -78t-86 -139zM254 1241q0 16 25 41l178 174q18 18 31.5 23.5t34.5 5.5h20 q18 0 32.5 -5t33.5 -24l178 -174q25 -25 24 -41q0 -23 -28 -22h-35q-14 0 -28.5 4t-22.5 10l-164 123l-164 -123q-8 -6 -22.5 -10t-28.5 -4h-35q-29 -1 -29 22z" />
<glyph unicode="&#xe3;" d="M86 285q0 135 109.5 221t296.5 110l323 46v71q0 113 -68.5 173.5t-209.5 60.5q-104 0 -171 -41t-85 -99q-8 -25 -19.5 -34t-30.5 -9h-28q-18 0 -31.5 13.5t-13.5 31.5q0 45 41 105.5t127 105.5t211 45q219 0 311 -104t92 -254v-682q0 -20 -12.5 -32.5t-32.5 -12.5h-35 q-20 0 -32.5 12.5t-12.5 32.5v96q-45 -68 -132 -114.5t-230 -46.5q-99 0 -183 40.5t-134 110.5t-50 154zM211 295q0 -94 79 -145.5t183 -51.5q150 0 246 98.5t96 282.5v70l-264 -37q-168 -23 -254 -78t-86 -139zM288 1251q0 59 42 104.5t104 45.5q35 0 60.5 -10.5 t56.5 -30.5q16 -10 33.5 -19.5t35.5 -9.5q16 0 25.5 7.5t19.5 23.5q8 16 16.5 23.5t22.5 7.5h41q14 0 23.5 -10.5t9.5 -22.5q0 -59 -44 -105.5t-104 -46.5q-34 0 -58 10.5t-58 30.5q-16 10 -34 19.5t-34 9.5t-25.5 -7t-19.5 -24q-16 -29 -39 -28h-41q-14 0 -23.5 10t-9.5 22 z" />
<glyph unicode="&#xe4;" d="M86 285q0 135 109.5 221t296.5 110l323 46v71q0 113 -68.5 173.5t-209.5 60.5q-104 0 -171 -41t-85 -99q-8 -25 -19.5 -34t-30.5 -9h-28q-18 0 -31.5 13.5t-13.5 31.5q0 45 41 105.5t127 105.5t211 45q219 0 311 -104t92 -254v-682q0 -20 -12.5 -32.5t-32.5 -12.5h-35 q-20 0 -32.5 12.5t-12.5 32.5v96q-45 -68 -132 -114.5t-230 -46.5q-99 0 -183 40.5t-134 110.5t-50 154zM211 295q0 -94 79 -145.5t183 -51.5q150 0 246 98.5t96 282.5v70l-264 -37q-168 -23 -254 -78t-86 -139zM301 1329v78q0 20 12.5 33.5t32.5 13.5h78q20 0 33.5 -13.5 t13.5 -33.5v-78q0 -20 -13 -32.5t-34 -12.5h-78q-20 0 -32.5 12.5t-12.5 32.5zM615 1329v78q0 20 12 33.5t33 13.5h78q20 0 33.5 -13.5t13.5 -33.5v-78q0 -20 -13.5 -32.5t-33.5 -12.5h-78q-21 0 -33 12.5t-12 32.5z" />
<glyph unicode="&#xe5;" d="M86 285q0 135 109.5 221t296.5 110l323 46v71q0 113 -68.5 173.5t-209.5 60.5q-104 0 -171 -41t-85 -99q-8 -25 -19.5 -34t-30.5 -9h-28q-18 0 -31.5 13.5t-13.5 31.5q0 45 41 105.5t127 105.5t211 45q219 0 311 -104t92 -254v-682q0 -20 -12.5 -32.5t-32.5 -12.5h-35 q-20 0 -32.5 12.5t-12.5 32.5v96q-45 -68 -132 -114.5t-230 -46.5q-99 0 -183 40.5t-134 110.5t-50 154zM211 295q0 -94 79 -145.5t183 -51.5q150 0 246 98.5t96 282.5v70l-264 -37q-168 -23 -254 -78t-86 -139zM368 1362q0 68 47.5 111t116.5 43q70 0 117 -43t47 -111 t-47 -111t-117 -43q-69 0 -116.5 43t-47.5 111zM471 1362q0 -27 17.5 -44.5t43.5 -17.5q27 0 44.5 17.5t17.5 44.5t-17.5 44t-44.5 17t-44 -17t-17 -44z" />
<glyph unicode="&#xe6;" horiz-adv-x="1804" d="M88 285q0 135 110.5 224t295.5 114l323 45v65q0 113 -68.5 173.5t-209.5 60.5q-106 0 -173 -41t-85 -99q-8 -25 -19.5 -34t-30.5 -9h-28q-18 0 -31.5 13.5t-13.5 31.5q0 45 42 105.5t128 105.5t211 45q145 0 234 -49t130 -131q119 180 357 180q254 0 347 -158.5 t93 -369.5v-31q0 -20 -13.5 -32.5t-33.5 -12.5h-709v-20q4 -125 50 -207t117 -119t146 -37q86 0 162 33t123 100q16 25 27.5 31t34.5 6h24q18 0 30.5 -11t12.5 -30q0 -37 -50 -96t-143.5 -105t-220.5 -46q-274 0 -383 225q-119 -225 -419 -225q-107 0 -191 39.5t-130 109.5 t-46 156zM213 295q0 -94 79 -145.5t183 -51.5q150 0 246 98.5t96 282.5v70l-264 -37q-168 -23 -254 -78t-86 -139zM944 596h631v8q0 162 -80 262.5t-235 100.5q-82 0 -152 -40t-115 -122t-49 -201v-8z" />
<glyph unicode="&#xe7;" d="M115 532l2 82q6 223 122.5 347t329.5 124q135 0 230.5 -48t142.5 -122.5t51 -154.5q2 -18 -12 -31.5t-33 -13.5h-28q-20 0 -29.5 9t-20.5 34q-41 113 -114.5 161t-186.5 48q-147 0 -234 -89.5t-93 -273.5l-2 -72l2 -71q6 -184 93 -273.5t234 -89.5q113 0 186.5 48.5 t114.5 160.5q10 25 19.5 34t30.5 9h28q18 0 32.5 -13t12.5 -32q-4 -80 -51 -154.5t-142 -122.5t-231 -48l-47 -99q27 16 78 17q68 0 112 -47.5t44 -120.5q0 -78 -49.5 -129.5t-139.5 -51.5q-49 0 -90 14.5t-64.5 35t-23.5 39.5q0 10 6 16l29 27q8 8 18 8q8 0 29 -13.5 t40 -22.5t52 -9q37 0 62.5 22.5t25.5 59.5q0 35 -25.5 56t-62.5 21q-29 0 -58.5 -10t-37.5 -10q-16 0 -27 12l-32 35q-6 6 -7 16q0 10 7.5 24.5t9.5 20.5l43 99q-164 29 -252 148.5t-92 312.5z" />
<glyph unicode="&#xe8;" horiz-adv-x="1118" d="M111 532l2 82q16 213 134 342t314 129q213 0 333 -141t120 -387v-31q0 -20 -13.5 -32.5t-33.5 -12.5h-729v-20q4 -96 44 -179t111.5 -133.5t167.5 -50.5q113 0 183.5 44t101.5 89q18 25 27.5 31t33.5 6h33q18 0 30.5 -10t12.5 -27q0 -43 -54.5 -103t-150.5 -104t-217 -44 q-194 0 -313 128t-135 343zM238 596h651v8q0 158 -89 260.5t-239 102.5t-236.5 -102.5t-86.5 -260.5v-8zM278 1446q0 39 39 39h84q29 0 43.5 -7.5t32.5 -29.5l141 -170q10 -10 11 -27q0 -33 -33 -32h-21q-22 0 -34.5 4t-28.5 16l-223 182q-10 10 -11 25z" />
<glyph unicode="&#xe9;" horiz-adv-x="1118" d="M111 532l2 82q16 213 134 342t314 129q213 0 333 -141t120 -387v-31q0 -20 -13.5 -32.5t-33.5 -12.5h-729v-20q4 -96 44 -179t111.5 -133.5t167.5 -50.5q113 0 183.5 44t101.5 89q18 25 27.5 31t33.5 6h33q18 0 30.5 -10t12.5 -27q0 -43 -54.5 -103t-150.5 -104t-217 -44 q-194 0 -313 128t-135 343zM238 596h651v8q0 158 -89 260.5t-239 102.5t-236.5 -102.5t-86.5 -260.5v-8zM497 1251q0 16 11 27l141 170q18 23 32.5 30t43.5 7h84q39 0 39 -39q0 -14 -11 -25l-223 -182q-16 -12 -28.5 -16t-34.5 -4h-21q-33 -1 -33 32z" />
<glyph unicode="&#xea;" horiz-adv-x="1118" d="M111 532l2 82q16 213 134 342t314 129q213 0 333 -141t120 -387v-31q0 -20 -13.5 -32.5t-33.5 -12.5h-729v-20q4 -96 44 -179t111.5 -133.5t167.5 -50.5q113 0 183.5 44t101.5 89q18 25 27.5 31t33.5 6h33q18 0 30.5 -10t12.5 -27q0 -43 -54.5 -103t-150.5 -104t-217 -44 q-194 0 -313 128t-135 343zM238 596h651v8q0 158 -89 260.5t-239 102.5t-236.5 -102.5t-86.5 -260.5v-8zM282 1241q0 16 25 41l178 174q18 18 31.5 23.5t34.5 5.5h20q18 0 32.5 -5t33.5 -24l178 -174q25 -25 24 -41q0 -23 -28 -22h-35q-14 0 -28.5 4t-22.5 10l-164 123 l-164 -123q-8 -6 -22.5 -10t-28.5 -4h-35q-29 -1 -29 22z" />
<glyph unicode="&#xeb;" horiz-adv-x="1118" d="M111 532l2 82q16 213 134 342t314 129q213 0 333 -141t120 -387v-31q0 -20 -13.5 -32.5t-33.5 -12.5h-729v-20q4 -96 44 -179t111.5 -133.5t167.5 -50.5q113 0 183.5 44t101.5 89q18 25 27.5 31t33.5 6h33q18 0 30.5 -10t12.5 -27q0 -43 -54.5 -103t-150.5 -104t-217 -44 q-194 0 -313 128t-135 343zM238 596h651v8q0 158 -89 260.5t-239 102.5t-236.5 -102.5t-86.5 -260.5v-8zM319 1329v78q0 20 12.5 33.5t32.5 13.5h78q20 0 33.5 -13.5t13.5 -33.5v-78q0 -20 -13 -32.5t-34 -12.5h-78q-20 0 -32.5 12.5t-12.5 32.5zM633 1329v78q0 20 12 33.5 t33 13.5h78q20 0 33.5 -13.5t13.5 -33.5v-78q0 -20 -13.5 -32.5t-33.5 -12.5h-78q-21 0 -33 12.5t-12 32.5z" />
<glyph unicode="&#xec;" horiz-adv-x="456" d="M-56 1446q0 39 39 39h84q29 0 43.5 -7.5t32.5 -29.5l141 -170q10 -10 11 -27q0 -33 -33 -32h-21q-22 0 -34.5 4t-28.5 16l-223 182q-10 10 -11 25zM166 45v975q0 20 12 32.5t33 12.5h35q20 0 32.5 -12.5t12.5 -32.5v-975q0 -20 -12.5 -32.5t-32.5 -12.5h-35 q-21 0 -33 12.5t-12 32.5z" />
<glyph unicode="&#xed;" horiz-adv-x="456" d="M161 1251q0 16 11 27l141 170q18 23 32.5 30t43.5 7h84q39 0 39 -39q0 -14 -11 -25l-223 -182q-16 -12 -28.5 -16t-34.5 -4h-21q-33 -1 -33 32zM166 45v975q0 20 12 32.5t33 12.5h35q20 0 32.5 -12.5t12.5 -32.5v-975q0 -20 -12.5 -32.5t-32.5 -12.5h-35q-21 0 -33 12.5 t-12 32.5z" />
<glyph unicode="&#xee;" horiz-adv-x="456" d="M-52 1241q0 16 25 41l178 174q18 18 31.5 23.5t34.5 5.5h20q18 0 32.5 -5t33.5 -24l178 -174q25 -25 24 -41q0 -23 -28 -22h-35q-14 0 -28.5 4t-22.5 10l-164 123l-164 -123q-8 -6 -22.5 -10t-28.5 -4h-35q-29 -1 -29 22zM166 45v975q0 20 12 32.5t33 12.5h35 q20 0 32.5 -12.5t12.5 -32.5v-975q0 -20 -12.5 -32.5t-32.5 -12.5h-35q-21 0 -33 12.5t-12 32.5z" />
<glyph unicode="&#xef;" horiz-adv-x="456" d="M-15 1329v78q0 20 12.5 33.5t32.5 13.5h78q20 0 33.5 -13.5t13.5 -33.5v-78q0 -20 -13 -32.5t-34 -12.5h-78q-20 0 -32.5 12.5t-12.5 32.5zM166 45v975q0 20 12 32.5t33 12.5h35q20 0 32.5 -12.5t12.5 -32.5v-975q0 -20 -12.5 -32.5t-32.5 -12.5h-35q-21 0 -33 12.5 t-12 32.5zM299 1329v78q0 20 12 33.5t33 13.5h78q20 0 33.5 -13.5t13.5 -33.5v-78q0 -20 -13.5 -32.5t-33.5 -12.5h-78q-21 0 -33 12.5t-12 32.5z" />
<glyph unicode="&#xf0;" horiz-adv-x="1126" d="M111 467q0 221 116.5 358.5t331.5 137.5q162 0 270 -80q-47 143 -133 250l-196 -76q-14 -6 -27 -6q-18 0 -28.5 9t-10.5 27v39q0 23 9.5 32t35.5 20l127 49q-55 53 -137 121q-35 27 -35 45t11.5 29.5t29.5 11.5h41q41 0 74 -27q88 -78 141 -133l191 74q16 6 26 6 q18 0 28.5 -9.5t10.5 -27.5v-39q0 -23 -9 -32t-36 -19l-127 -49q92 -121 141.5 -287t51.5 -416v-6q0 -217 -118 -353t-331 -136q-143 0 -243.5 63t-152.5 174t-52 250zM236 463q4 -160 88 -262.5t235 -102.5q154 0 238 103.5t86 265.5v8q0 162 -84 265.5t-240 103.5 t-239.5 -103.5t-83.5 -265.5v-12z" />
<glyph unicode="&#xf1;" horiz-adv-x="1208" d="M166 45v975q0 20 12 32.5t33 12.5h35q20 0 32.5 -12.5t12.5 -32.5v-96q61 80 140 120.5t204 40.5q201 0 309.5 -128t108.5 -330v-582q0 -20 -12.5 -32.5t-32.5 -12.5h-35q-20 0 -32.5 12.5t-12.5 32.5v571q0 166 -81 258.5t-233 92.5q-147 0 -235 -93.5t-88 -257.5v-571 q0 -20 -12.5 -32.5t-32.5 -12.5h-35q-21 0 -33 12.5t-12 32.5zM364 1251q0 59 42 104.5t104 45.5q35 0 60.5 -10.5t56.5 -30.5q16 -10 33.5 -19.5t35.5 -9.5q16 0 25.5 7.5t19.5 23.5q8 16 16.5 23.5t22.5 7.5h41q14 0 23.5 -10.5t9.5 -22.5q0 -59 -44 -105.5t-104 -46.5 q-34 0 -58 10.5t-58 30.5q-16 10 -34 19.5t-34 9.5t-25.5 -7t-19.5 -24q-16 -29 -39 -28h-41q-14 0 -23.5 10t-9.5 22z" />
<glyph unicode="&#xf2;" horiz-adv-x="1142" d="M115 532l2 86q6 207 123.5 337t330.5 130t331 -130t124 -337q2 -20 2 -86t-2 -86q-6 -207 -124 -336.5t-331 -129.5t-330.5 130t-123.5 336zM240 532l2 -75q6 -172 95 -265.5t234 -93.5q146 0 235 93.5t95 265.5q2 20 2 75t-2 76q-6 172 -95 265.5t-235 93.5 q-145 0 -234 -93.5t-95 -265.5zM288 1446q0 39 39 39h84q29 0 43.5 -7.5t32.5 -29.5l141 -170q10 -10 11 -27q0 -33 -33 -32h-21q-22 0 -34.5 4t-28.5 16l-223 182q-10 10 -11 25z" />
<glyph unicode="&#xf3;" horiz-adv-x="1142" d="M115 532l2 86q6 207 123.5 337t330.5 130t331 -130t124 -337q2 -20 2 -86t-2 -86q-6 -207 -124 -336.5t-331 -129.5t-330.5 130t-123.5 336zM240 532l2 -75q6 -172 95 -265.5t234 -93.5q146 0 235 93.5t95 265.5q2 20 2 75t-2 76q-6 172 -95 265.5t-235 93.5 q-145 0 -234 -93.5t-95 -265.5zM503 1251q0 16 11 27l141 170q18 23 32.5 30t43.5 7h84q39 0 39 -39q0 -14 -11 -25l-223 -182q-16 -12 -28.5 -16t-34.5 -4h-21q-33 -1 -33 32z" />
<glyph unicode="&#xf4;" horiz-adv-x="1142" d="M115 532l2 86q6 207 123.5 337t330.5 130t331 -130t124 -337q2 -20 2 -86t-2 -86q-6 -207 -124 -336.5t-331 -129.5t-330.5 130t-123.5 336zM240 532l2 -75q6 -172 95 -265.5t234 -93.5q146 0 235 93.5t95 265.5q2 20 2 75t-2 76q-6 172 -95 265.5t-235 93.5 q-145 0 -234 -93.5t-95 -265.5zM293 1241q0 16 25 41l178 174q18 18 31.5 23.5t34.5 5.5h20q18 0 32.5 -5t33.5 -24l178 -174q25 -25 24 -41q0 -23 -28 -22h-35q-14 0 -28.5 4t-22.5 10l-164 123l-164 -123q-8 -6 -22.5 -10t-28.5 -4h-35q-29 -1 -29 22z" />
<glyph unicode="&#xf5;" horiz-adv-x="1142" d="M115 532l2 86q6 207 123.5 337t330.5 130t331 -130t124 -337q2 -20 2 -86t-2 -86q-6 -207 -124 -336.5t-331 -129.5t-330.5 130t-123.5 336zM240 532l2 -75q6 -172 95 -265.5t234 -93.5q146 0 235 93.5t95 265.5q2 20 2 75t-2 76q-6 172 -95 265.5t-235 93.5 q-145 0 -234 -93.5t-95 -265.5zM327 1251q0 59 42 104.5t104 45.5q35 0 60.5 -10.5t56.5 -30.5q16 -10 33.5 -19.5t35.5 -9.5q16 0 25.5 7.5t19.5 23.5q8 16 16.5 23.5t22.5 7.5h41q14 0 23.5 -10.5t9.5 -22.5q0 -59 -44 -105.5t-104 -46.5q-34 0 -58 10.5t-58 30.5 q-16 10 -34 19.5t-34 9.5t-25.5 -7t-19.5 -24q-16 -29 -39 -28h-41q-14 0 -23.5 10t-9.5 22z" />
<glyph unicode="&#xf6;" horiz-adv-x="1142" d="M115 532l2 86q6 207 123.5 337t330.5 130t331 -130t124 -337q2 -20 2 -86t-2 -86q-6 -207 -124 -336.5t-331 -129.5t-330.5 130t-123.5 336zM240 532l2 -75q6 -172 95 -265.5t234 -93.5q146 0 235 93.5t95 265.5q2 20 2 75t-2 76q-6 172 -95 265.5t-235 93.5 q-145 0 -234 -93.5t-95 -265.5zM329 1329v78q0 20 12.5 33.5t32.5 13.5h78q20 0 33.5 -13.5t13.5 -33.5v-78q0 -20 -13 -32.5t-34 -12.5h-78q-20 0 -32.5 12.5t-12.5 32.5zM643 1329v78q0 20 12 33.5t33 13.5h78q20 0 33.5 -13.5t13.5 -33.5v-78q0 -20 -13.5 -32.5 t-33.5 -12.5h-78q-21 0 -33 12.5t-12 32.5z" />
<glyph unicode="&#xf7;" horiz-adv-x="1157" d="M150 602v29q0 20 12 32.5t33 12.5h768q20 0 32.5 -12.5t12.5 -32.5v-29q0 -20 -12.5 -32.5t-32.5 -12.5h-768q-21 0 -33 12.5t-12 32.5zM483 209v98q0 20 12.5 33.5t32.5 13.5h99q20 0 33.5 -13t13.5 -34v-98q0 -20 -13.5 -32.5t-33.5 -12.5h-99q-20 0 -32.5 12t-12.5 33 zM483 926v98q0 20 12.5 33.5t32.5 13.5h99q20 0 33.5 -13.5t13.5 -33.5v-98q0 -20 -13.5 -32.5t-33.5 -12.5h-99q-20 0 -32.5 12t-12.5 33z" />
<glyph unicode="&#xf8;" horiz-adv-x="1216" d="M31 295v39q0 23 9 32t36 19l80 31q-4 39 -4 114q0 59 2 88q6 195 114.5 331t339.5 136q184 0 291 -90t143 -235l78 31q16 6 27 6q18 0 28.5 -9.5t10.5 -27.5v-39q0 -23 -9.5 -32t-35.5 -19l-80 -31q4 -53 4 -115l-2 -78q-6 -195 -114.5 -330.5t-340.5 -135.5 q-182 0 -288.5 87t-145.5 228l-78 -31q-16 -6 -26 -6q-18 0 -28.5 9t-10.5 28zM276 545l3 -82l647 252q-27 129 -113 190.5t-205 61.5q-139 0 -231 -85t-98 -264zM291 340q31 -123 116 -182.5t201 -59.5q140 0 232 85t98 263q2 16 2 68q0 55 -2 78z" />
<glyph unicode="&#xf9;" horiz-adv-x="1198" d="M156 438v582q0 20 12 32.5t33 12.5h35q20 0 32.5 -12.5t12.5 -32.5v-571q0 -350 305 -351q147 0 234 93.5t87 257.5v571q0 20 12.5 32.5t32.5 12.5h35q20 0 32.5 -12.5t12.5 -32.5v-975q0 -20 -12 -32.5t-33 -12.5h-35q-20 0 -32.5 12.5t-12.5 32.5v96 q-61 -80 -140 -120.5t-202 -40.5q-200 0 -304.5 126.5t-104.5 331.5zM313 1446q0 39 39 39h84q29 0 43.5 -7.5t32.5 -29.5l141 -170q10 -10 11 -27q0 -33 -33 -32h-21q-22 0 -34.5 4t-28.5 16l-223 182q-10 10 -11 25z" />
<glyph unicode="&#xfa;" horiz-adv-x="1198" d="M156 438v582q0 20 12 32.5t33 12.5h35q20 0 32.5 -12.5t12.5 -32.5v-571q0 -350 305 -351q147 0 234 93.5t87 257.5v571q0 20 12.5 32.5t32.5 12.5h35q20 0 32.5 -12.5t12.5 -32.5v-975q0 -20 -12 -32.5t-33 -12.5h-35q-20 0 -32.5 12.5t-12.5 32.5v96 q-61 -80 -140 -120.5t-202 -40.5q-200 0 -304.5 126.5t-104.5 331.5zM522 1251q0 16 11 27l141 170q18 23 32.5 30t43.5 7h84q39 0 39 -39q0 -14 -11 -25l-223 -182q-16 -12 -28.5 -16t-34.5 -4h-21q-33 -1 -33 32z" />
<glyph unicode="&#xfb;" horiz-adv-x="1198" d="M156 438v582q0 20 12 32.5t33 12.5h35q20 0 32.5 -12.5t12.5 -32.5v-571q0 -350 305 -351q147 0 234 93.5t87 257.5v571q0 20 12.5 32.5t32.5 12.5h35q20 0 32.5 -12.5t12.5 -32.5v-975q0 -20 -12 -32.5t-33 -12.5h-35q-20 0 -32.5 12.5t-12.5 32.5v96 q-61 -80 -140 -120.5t-202 -40.5q-200 0 -304.5 126.5t-104.5 331.5zM315 1241q0 16 25 41l178 174q18 18 31.5 23.5t34.5 5.5h20q18 0 32.5 -5t33.5 -24l178 -174q25 -25 24 -41q0 -23 -28 -22h-35q-14 0 -28.5 4t-22.5 10l-164 123l-164 -123q-8 -6 -22.5 -10t-28.5 -4 h-35q-29 -1 -29 22z" />
<glyph unicode="&#xfc;" horiz-adv-x="1198" d="M156 438v582q0 20 12 32.5t33 12.5h35q20 0 32.5 -12.5t12.5 -32.5v-571q0 -350 305 -351q147 0 234 93.5t87 257.5v571q0 20 12.5 32.5t32.5 12.5h35q20 0 32.5 -12.5t12.5 -32.5v-975q0 -20 -12 -32.5t-33 -12.5h-35q-20 0 -32.5 12.5t-12.5 32.5v96 q-61 -80 -140 -120.5t-202 -40.5q-200 0 -304.5 126.5t-104.5 331.5zM352 1329v78q0 20 12.5 33.5t32.5 13.5h78q20 0 33.5 -13.5t13.5 -33.5v-78q0 -20 -13 -32.5t-34 -12.5h-78q-20 0 -32.5 12.5t-12.5 32.5zM666 1329v78q0 20 12 33.5t33 13.5h78q20 0 33.5 -13.5 t13.5 -33.5v-78q0 -20 -13.5 -32.5t-33.5 -12.5h-78q-21 0 -33 12.5t-12 32.5z" />
<glyph unicode="&#xfd;" horiz-adv-x="1089" d="M72 1024q0 16 12 28.5t29 12.5h43q33 0 47 -31l344 -811l352 811q16 31 47 31h41q16 0 28.5 -12.5t12.5 -28.5q0 -10 -12 -41l-582 -1341q-14 -31 -47 -31h-41q-16 0 -28.5 12t-12.5 29q0 10 12 41l158 368l-391 922q-12 31 -12 41zM477 1251q0 16 11 27l141 170 q18 23 32.5 30t43.5 7h84q39 0 39 -39q0 -14 -11 -25l-223 -182q-16 -12 -28.5 -16t-34.5 -4h-21q-33 -1 -33 32z" />
<glyph unicode="&#xfe;" horiz-adv-x="1189" d="M168 -344v1753q0 20 12.5 32.5t32.5 12.5h35q20 0 32.5 -12t12.5 -33v-485q119 162 344 161q221 0 326.5 -140t111.5 -345q2 -20 2 -68q0 -47 -2 -67q-6 -205 -111.5 -345t-326.5 -140q-223 0 -344 161v-485q0 -20 -12.5 -32.5t-32.5 -12.5h-35q-20 0 -32.5 12t-12.5 33z M291 526l2 -80q2 -88 39 -166.5t110.5 -130t182.5 -51.5q166 0 242.5 105.5t82.5 271.5q2 20 2 57q0 190 -73.5 312.5t-253.5 122.5q-162 0 -244 -107.5t-88 -253.5z" />
<glyph unicode="&#xff;" horiz-adv-x="1089" d="M72 1024q0 16 12 28.5t29 12.5h43q33 0 47 -31l344 -811l352 811q16 31 47 31h41q16 0 28.5 -12.5t12.5 -28.5q0 -10 -12 -41l-582 -1341q-14 -31 -47 -31h-41q-16 0 -28.5 12t-12.5 29q0 10 12 41l158 368l-391 922q-12 31 -12 41zM305 1329v78q0 20 12.5 33.5 t32.5 13.5h78q20 0 33.5 -13.5t13.5 -33.5v-78q0 -20 -13 -32.5t-34 -12.5h-78q-20 0 -32.5 12.5t-12.5 32.5zM619 1329v78q0 20 12 33.5t33 13.5h78q20 0 33.5 -13.5t13.5 -33.5v-78q0 -20 -13.5 -32.5t-33.5 -12.5h-78q-21 0 -33 12.5t-12 32.5z" />
<glyph unicode="&#x152;" horiz-adv-x="1843" d="M141 719l2 162q4 186 56.5 307t176.5 183.5t337 62.5h956q23 0 35 -12.5t12 -35.5v-30q0 -20 -13 -32.5t-34 -12.5h-633v-523h588q23 0 35 -12t12 -35v-30q0 -20 -13 -32.5t-34 -12.5h-588v-543h650q23 0 35 -12.5t12 -34.5v-31q0 -20 -13.5 -32.5t-33.5 -12.5h-984 q-208 0 -329 59.5t-173.5 179t-56.5 316.5zM270 719l2 -154q4 -164 46 -259t136.5 -139t258.5 -44h194v1188h-184q-240 0 -343.5 -105.5t-107.5 -335.5z" />
<glyph unicode="&#x153;" horiz-adv-x="1906" d="M117 532l2 86q6 207 123.5 337t330.5 130q143 0 244 -60t154 -169q57 109 154.5 169t230.5 60q213 0 332.5 -141t119.5 -387v-31q0 -20 -13 -32.5t-34 -12.5h-729v-20q4 -96 44 -179t112 -133.5t168 -50.5q106 0 174.5 44t99.5 89q18 25 27.5 31t34.5 6h32q18 0 30.5 -10 t12.5 -27q0 -43 -53 -103t-147 -104t-211 -44q-131 0 -229.5 59t-155.5 168q-53 -109 -153.5 -168t-244.5 -59q-213 0 -330.5 130t-123.5 336zM242 532l2 -75q6 -172 95 -265.5t234 -93.5q146 0 235 93.5t95 265.5q2 20 2 75t-2 76q-6 172 -95 265.5t-235 93.5 q-145 0 -234 -93.5t-95 -265.5zM1032 596h651v8q0 158 -89 260.5t-238 102.5q-150 0 -237 -102.5t-87 -260.5v-8z" />
<glyph unicode="&#x178;" horiz-adv-x="1294" d="M74 1393q0 16 12 28.5t29 12.5h41q29 0 47 -31l444 -723l445 723q18 31 47 31h41q16 0 28.5 -12.5t12.5 -28.5q0 -10 -9 -27l-499 -819v-502q0 -20 -13.5 -32.5t-33.5 -12.5h-39q-21 0 -33 12.5t-12 32.5v502l-500 819q-8 16 -8 27zM375 1581v78q0 20 12 33.5t33 13.5h78 q20 0 33.5 -13.5t13.5 -33.5v-78q0 -20 -13.5 -32.5t-33.5 -12.5h-78q-21 0 -33 12.5t-12 32.5zM750 1581v78q0 20 12 33.5t33 13.5h78q20 0 33.5 -13.5t13.5 -33.5v-78q0 -20 -13.5 -32.5t-33.5 -12.5h-78q-21 0 -33 12.5t-12 32.5z" />
<glyph unicode="&#x2c6;" horiz-adv-x="843" d="M143 1241q0 16 25 41l178 174q18 18 31.5 23.5t34.5 5.5h20q18 0 32.5 -5t33.5 -24l178 -174q25 -25 24 -41q0 -23 -28 -22h-35q-14 0 -28.5 4t-22.5 10l-164 123l-164 -123q-8 -6 -22.5 -10t-28.5 -4h-35q-29 -1 -29 22z" />
<glyph unicode="&#x2dc;" horiz-adv-x="776" d="M143 1251q0 59 42 104.5t104 45.5q35 0 60.5 -10.5t56.5 -30.5q16 -10 33.5 -19.5t35.5 -9.5q16 0 25.5 7.5t19.5 23.5q8 16 16.5 23.5t22.5 7.5h41q14 0 23.5 -10.5t9.5 -22.5q0 -59 -44 -105.5t-104 -46.5q-34 0 -58 10.5t-58 30.5q-16 10 -34 19.5t-34 9.5t-25.5 -7 t-19.5 -24q-16 -29 -39 -28h-41q-14 0 -23.5 10t-9.5 22z" />
<glyph unicode="&#x2000;" horiz-adv-x="917" />
<glyph unicode="&#x2001;" horiz-adv-x="1835" />
<glyph unicode="&#x2002;" horiz-adv-x="917" />
<glyph unicode="&#x2003;" horiz-adv-x="1835" />
<glyph unicode="&#x2004;" horiz-adv-x="611" />
<glyph unicode="&#x2005;" horiz-adv-x="458" />
<glyph unicode="&#x2006;" horiz-adv-x="305" />
<glyph unicode="&#x2007;" horiz-adv-x="305" />
<glyph unicode="&#x2008;" horiz-adv-x="229" />
<glyph unicode="&#x2009;" horiz-adv-x="367" />
<glyph unicode="&#x200a;" horiz-adv-x="101" />
<glyph unicode="&#x2010;" horiz-adv-x="997" d="M152 600v29q0 20 12 32.5t33 12.5h604q20 0 32.5 -12.5t12.5 -32.5v-29q0 -20 -12.5 -32.5t-32.5 -12.5h-604q-21 0 -33 12.5t-12 32.5z" />
<glyph unicode="&#x2011;" horiz-adv-x="997" d="M152 600v29q0 20 12 32.5t33 12.5h604q20 0 32.5 -12.5t12.5 -32.5v-29q0 -20 -12.5 -32.5t-32.5 -12.5h-604q-21 0 -33 12.5t-12 32.5z" />
<glyph unicode="&#x2012;" horiz-adv-x="997" d="M152 600v29q0 20 12 32.5t33 12.5h604q20 0 32.5 -12.5t12.5 -32.5v-29q0 -20 -12.5 -32.5t-32.5 -12.5h-604q-21 0 -33 12.5t-12 32.5z" />
<glyph unicode="&#x2013;" horiz-adv-x="1181" d="M152 600v29q0 20 12 32.5t33 12.5h788q20 0 32.5 -12.5t12.5 -32.5v-29q0 -20 -12 -32.5t-33 -12.5h-788q-21 0 -33 12.5t-12 32.5z" />
<glyph unicode="&#x2014;" horiz-adv-x="1570" d="M152 600v29q0 20 12 32.5t33 12.5h1177q20 0 32.5 -12.5t12.5 -32.5v-29q0 -20 -12 -32.5t-33 -12.5h-1177q-21 0 -33 12.5t-12 32.5z" />
<glyph unicode="&#x2018;" horiz-adv-x="450" d="M121 1143q0 18 8 37l88 231q10 23 21.5 33t31.5 10h35q16 0 24.5 -12t4.5 -31l-39 -246q-6 -55 -51 -55h-92q-15 0 -23 10t-8 23z" />
<glyph unicode="&#x2019;" horiz-adv-x="436" d="M131 1153l39 246q6 55 51 55h92q12 0 21.5 -10t9.5 -23q0 -18 -8 -37l-88 -231q-10 -23 -21.5 -33t-31.5 -10h-35q-17 0 -25 12.5t-4 30.5z" />
<glyph unicode="&#x201a;" horiz-adv-x="485" d="M121 -111l39 246q6 55 51 55h92q14 0 22.5 -10t8.5 -22q0 -18 -8 -37l-88 -232q-10 -23 -21.5 -33t-32.5 -10h-34q-17 0 -25 12.5t-4 30.5z" />
<glyph unicode="&#x201c;" horiz-adv-x="724" d="M121 1143q0 18 8 37l88 231q10 23 21.5 33t31.5 10h35q16 0 24.5 -12t4.5 -31l-39 -246q-6 -55 -51 -55h-92q-15 0 -23 10t-8 23zM395 1143q0 18 8 37l89 231q10 23 21 33t32 10h35q16 0 24 -12t4 -31l-39 -246q-6 -55 -51 -55h-92q-14 0 -22.5 10t-8.5 23z" />
<glyph unicode="&#x201d;" horiz-adv-x="710" d="M131 1153l39 246q6 55 51 55h92q12 0 21.5 -10t9.5 -23q0 -18 -8 -37l-88 -231q-10 -23 -21.5 -33t-31.5 -10h-35q-17 0 -25 12.5t-4 30.5zM406 1153l38 246q6 55 52 55h92q12 0 21 -10t9 -23q0 -18 -8 -37l-88 -231q-10 -23 -21.5 -33t-31.5 -10h-35q-16 0 -24.5 12.5 t-3.5 30.5z" />
<glyph unicode="&#x201e;" horiz-adv-x="759" d="M121 -111l39 246q6 55 51 55h92q14 0 22.5 -10t8.5 -22q0 -18 -8 -37l-88 -232q-10 -23 -21.5 -33t-32.5 -10h-34q-17 0 -25 12.5t-4 30.5zM395 -111l39 246q6 55 51 55h93q14 0 22 -10t8 -22q0 -18 -8 -37l-88 -232q-10 -23 -21.5 -33t-31.5 -10h-35q-16 0 -24.5 12.5 t-4.5 30.5z" />
<glyph unicode="&#x2022;" horiz-adv-x="778" d="M184 614q0 84 60.5 144.5t144.5 60.5t144.5 -60.5t60.5 -144.5t-60.5 -144t-144.5 -60t-144.5 60t-60.5 144z" />
<glyph unicode="&#x2026;" horiz-adv-x="1155" d="M150 45v98q0 20 12 33.5t33 13.5h98q20 0 33.5 -13t13.5 -34v-98q0 -20 -13.5 -32.5t-33.5 -12.5h-98q-21 0 -33 12.5t-12 32.5zM483 45v98q0 20 12.5 33.5t32.5 13.5h99q20 0 33.5 -13t13.5 -34v-98q0 -20 -13.5 -32.5t-33.5 -12.5h-99q-20 0 -32.5 12.5t-12.5 32.5z M817 45v98q0 20 12.5 33.5t32.5 13.5h99q20 0 33.5 -13t13.5 -34v-98q0 -20 -13.5 -32.5t-33.5 -12.5h-99q-20 0 -32.5 12.5t-12.5 32.5z" />
<glyph unicode="&#x202f;" horiz-adv-x="367" />
<glyph unicode="&#x2039;" horiz-adv-x="724" d="M96 657v33q4 41 35 72l385 373q29 25 49 24q18 0 29.5 -11t11.5 -30v-35q0 -23 -8 -38t-29 -35l-346 -336l346 -336q20 -20 28.5 -35.5t8.5 -38.5v-35q0 -18 -11 -29.5t-30 -11.5q-20 0 -49 25l-385 373q-31 31 -35 71z" />
<glyph unicode="&#x203a;" horiz-adv-x="724" d="M119 229v35q0 23 8 38t29 36l346 336l-346 336q-20 20 -28.5 35.5t-8.5 37.5v35q0 18 11 29.5t30 11.5q20 0 49 -24l385 -373q31 -31 35 -72v-33q-4 -41 -35 -71l-385 -373q-29 -25 -49 -25q-19 0 -30 11.5t-11 29.5z" />
<glyph unicode="&#x205f;" horiz-adv-x="458" />
<glyph unicode="&#x20ac;" horiz-adv-x="1486" d="M96 557v33q0 20 12.5 32.5t32.5 12.5h131v164h-131q-20 0 -32.5 12t-12.5 33v33q0 20 12.5 32.5t32.5 12.5h133q14 246 147.5 389t393.5 143q182 0 304 -60.5t180.5 -152.5t64.5 -188v-4q0 -16 -12.5 -26.5t-30.5 -10.5h-41q-18 0 -28.5 9t-16.5 34q-39 147 -143.5 211.5 t-276.5 64.5q-383 0 -409 -409h456q20 0 32.5 -12.5t12.5 -32.5v-33q0 -20 -12 -32.5t-33 -12.5h-459v-164h459q20 0 32.5 -12.5t12.5 -32.5v-33q0 -20 -12 -32.5t-33 -12.5h-456q27 -410 409 -410q172 0 276.5 64.5t143.5 212.5q6 25 16.5 34t28.5 9h41q18 0 31.5 -11.5 t11.5 -29.5q-6 -96 -64.5 -188.5t-180.5 -152.5t-304 -60q-260 0 -393 143t-148 389h-133q-20 0 -32.5 12.5t-12.5 32.5z" />
<glyph unicode="&#x2122;" horiz-adv-x="1280" d="M102 1364v25q0 20 12.5 32.5t32.5 12.5h332q20 0 32.5 -12.5t12.5 -32.5v-25q0 -20 -12 -32.5t-33 -12.5h-106v-385q0 -20 -12.5 -32.5t-32.5 -12.5h-29q-20 0 -32.5 12t-12.5 33v385h-107q-20 0 -32.5 12t-12.5 33zM586 934v455q0 20 12 32.5t33 12.5h28q35 0 64 -45 l127 -203l127 203q29 45 63 45h29q20 0 32.5 -12.5t12.5 -32.5v-455q0 -20 -12 -32.5t-33 -12.5h-29q-20 0 -32.5 12t-12.5 33v264l-84 -137q-14 -23 -24 -32t-29 -9h-16q-18 0 -28.5 9t-25.5 32l-83 137v-264q0 -20 -12.5 -32.5t-33.5 -12.5h-28q-21 0 -33 12t-12 33z" />
<glyph unicode="&#x25fc;" horiz-adv-x="1064" d="M0 0v1065h1065v-1065h-1065z" />
<glyph unicode="&#xfb03;" horiz-adv-x="1591" d="M39 991v29q0 20 12 32.5t33 12.5h182v117q0 156 67.5 245t241.5 89h107q20 0 32.5 -12.5t12.5 -33.5v-28q0 -20 -12.5 -32.5t-32.5 -12.5h-107q-104 0 -144 -54.5t-40 -171.5v-106h453v117q0 156 67.5 245t241.5 89h227q20 0 32.5 -12.5t12.5 -33.5v-28q0 -20 -12 -32.5 t-33 -12.5h-227q-104 0 -144 -54.5t-40 -171.5v-106h411q20 0 32.5 -12.5t12.5 -32.5v-975q0 -20 -12 -32.5t-33 -12.5h-34q-20 0 -33 12.5t-13 32.5v901h-331v-901q0 -20 -12.5 -32.5t-32.5 -12.5h-35q-20 0 -32.5 12.5t-12.5 32.5v901h-453v-901q0 -20 -12 -32.5 t-33 -12.5h-35q-20 0 -32.5 12.5t-12.5 32.5v901h-182q-20 0 -32.5 12.5t-12.5 32.5z" />
<glyph unicode="&#xfb04;" horiz-adv-x="1714" d="M39 991v29q0 20 12 32.5t33 12.5h182v117q0 156 67.5 245t241.5 89h107q20 0 32.5 -12.5t12.5 -33.5v-28q0 -20 -12.5 -32.5t-32.5 -12.5h-107q-104 0 -144 -54.5t-40 -171.5v-106h453v117q0 156 67.5 245t241.5 89h107q20 0 32.5 -12.5t12.5 -33.5v-28 q0 -20 -12.5 -32.5t-32.5 -12.5h-107q-104 0 -144 -54.5t-40 -171.5v-106h452v405q0 20 12.5 33t32.5 13h35q20 0 32.5 -12.5t12.5 -33.5v-1425q0 -20 -12 -32.5t-33 -12.5h-35q-20 0 -32.5 12.5t-12.5 32.5v901h-452v-901q0 -20 -12.5 -32.5t-32.5 -12.5h-35 q-20 0 -32.5 12.5t-12.5 32.5v901h-453v-901q0 -20 -12 -32.5t-33 -12.5h-35q-20 0 -32.5 12.5t-12.5 32.5v901h-182q-20 0 -32.5 12.5t-12.5 32.5z" />
</font>
</defs>
</svg>
